Horror

Art of The Devil 2 REAL UNCUT German 2005 DVDRiP XviD DaR

  • Download 5x Faster
  • Download torrent
  • Direct Download
  • Rate this torrent +  |  -
Art of The Devil 2 REAL UNCUT German 2005 DVDRiP XviD DaR

Anonymous and Free Direct Download 300GB+


Torrent info

Name:Art of The Devil 2 REAL UNCUT German 2005 DVDRiP XviD DaR

Total Size: 701.51 MB

Magnet: Magnet Link

Seeds: 0

Leechers: 0

Stream: Watch Online @ Movie4u

Last Updated: 2016-01-30 07:12:07 (Update Now)

Torrent added: 2009-08-27 17:13:42



VPN For Torrents

Torrent Files List


Art.of.The.Devil.2.REAL.UNCUT.German.2005.DVDRiP.XviD-DaR.avi (Size: 701.51 MB) (Files: 2)

 Art.of.The.Devil.2.REAL.UNCUT.German.2005.DVDRiP.XviD-DaR.avi

701.51 MB

 info.nfo

2.31 KB
 

tracker

leech seeds
 

Torrent description

Das Zusammentreffen von 6 alten Schulfreunden steht unter einem schlechten Stern. Ein dunkles Geheimnis ihrer Vergangenheit verbindet sie und führt sie in eine furchtbare Welt der schwarzen Magie und des Verderbens. Der Horror, den sie selbst ausgelöst hatten, streckt nun gnadenlos seine Finger nach dem Leben der 6 aus, ohne ihnen eine Chance auf Erlösung zu geben.



Vollstndiger Name Art.of.The.Devil.2.REAL.UNCUT.German.2005.DVDRiP.XviD-DaR
Format : AVI
Format/Info : Audio Video Interleave
Dateigre : 702 MiB
Duration : 1h 38min
Gesamte Bitrate : 996 Kbps

Video
Format : MPEG-4 Visual
Format profile : Streaming [email protected]
Format settings, BVOP : Ja
Format settings, QPel : Ja
Format settings, GMC : No warpoints
Format settings, Matrix : Default
Muxing mode : Packet Bitstream
Codec ID : XVID
Codec ID/Hint : XviD
Duration : 1h 38min
Bitrate : 858 Kbps
Breite : 608 Pixel
Höhe : 336 Pixel
Bildseitenverhltnis : 16/9
Bildwiederholungsrate : 25.000 FPS
Auflsung : 8 bits
Colorimetry : 4:2:0
Scan type : Interlaced
Scan order : Bottom Field First
Bits/(Pixel*Frame) : 0.168
Stream size : 604 MiB
verwendete Encoder-Bibliothek : XviD 1.2.0.dev47 (UTC 2006-11-01)

Audio
Format : MPEG Audio
Format version : Version 1
Format profile : Layer 3
Codec ID : 55
Codec ID/Hint : MP3
Duration : 1h 38min
Bitraten-Modus : Constant
Bitrate : 128 Kbps
Kanle : 2 Kanle
Samplingrate : 44.1 KHz
Auflsung : 16 bits
Video0 Verzgerung : 26ms
Stream size : 90.2 MiB
Titel : Audio Stream

related torrents

Torrent name

health leech seeds Size
 


comments (0)

Main Menu