Horror

April Fools Day (1986) [DVDRip] [KooKoo] [h33t]

  • Download 5x Faster
  • Download torrent
  • Direct Download
  • Rate this torrent +  |  -
April Fools Day (1986) [DVDRip] [KooKoo] [h33t]

Free and Direct Download with Usenet 300GB+ free


Torrent info

Name:April Fools Day (1986) [DVDRip] [KooKoo] [h33t]

Total Size: 702.42 MB

Magnet: Magnet Link

Seeds: 5

Leechers: 5

Stream: Watch Online @ Movie4u

Last Updated: 0000-00-00 00:00:00 (Update Now)

Torrent added: 2009-08-27 17:10:22




Torrent Files List


April Fools Day (1986) [DVDRip] [KooKoo] [h33t].avi (Size: 702.42 MB) (Files: 8)

 April Fools Day (1986) [DVDRip] [KooKoo] [h33t].avi

699.59 MB

 EnglishSubtitles

  April Fools Day (1986) [DVDRip] [KooKoo] [h33t].idx

39.51 KB

  April Fools Day (1986) [DVDRip] [KooKoo] [h33t].sub

2.54 MB

 KooKoo.txt

15.57 KB

 Poster

  A70-11220.jpg

55.88 KB

 Screenshots

  thumbs20080612190208.jpg

186.20 KB

 Torrent downloaded from Demonoid.com.txt

0.05 KB

 tracked_by_h33t_com.txt

0.02 KB
 

Announce URL: http://www.h33t.com:3310/announce

Torrent description

April Fool's Day (1986)
-----------------------------------------------------------------------------------------------------------------------------
Genre: Horror, Slasher
-----------------------------------------------------------------------------------------------------------------------------
Synopsis:
A group of eight college friends gather together at an island mansion belonging to
heiress Muffy St. John to celebrate their final year of school. They soon discover that
each has a hidden secret from their past which is revealed, and soon after, they turn
up dead. Yet, are they really dead? Or is it just part of some very real and cruel April
Fool's jokes? The hostess, Muffy, is the only one who apparently knows what's going
on. But then again, is it really her doing the killing?
-----------------------------------------------------------------------------------------------------------------------------
IMDB URL: http://www.imdb.com/title/tt0090655/
-----------------------------------------------------------------------------------------------------------------------------
DVD source Information:
# Format: Anamorphic, Closed-captioned, Color, Dolby, DVD-Video, Subtitled, Widescreen, NTSC
# Language: English, French
# Subtitles: English
# Region: Region 1 (U.S. and Canada only. Read more about DVD formats.)
# Number of discs: 1
# Rating:R
# Studio: Paramount
# DVD Release Date: September 3, 2002
# Run Time: 88 minutes
http://www.amazon.com/April-Fools-Day-Jay-Baker/dp/B000069I05/ref=sr_1_1?ie=UTF8&s=dvd&qid=1213311956&sr=1-1
-----------------------------------------------------------------------------------------------------------------------------
File Verified With MediaInfo:
Complete name : April Fools Day (1986) [DVDRip] [KooKoo] [h33t].avi
Format : AVI
Format/Info : Audio Video Interleave
File size : 700 MiB
Duration : 1h 29mn
Overal bit rate : 1099 Kbps
Movie name : April Fools Day (1986) [DVDRip] [KooKoo] [h33t]
Writing application : VirtualDubMod 1.5.4.1 (build 2178/release) VirtualDubMod build 2178/release
Copyright : Ripped By KooKoo
IAS1 : English
-----------------------------------------------------------------------------------------------------------------------------
Video
Format : MPEG-4 Visual
Format profile : Streaming [email protected]
Format settings, BVOP : Yes
Format settings, QPel : No
Format settings, GMC : No warppoints
Format settings, Matrix : Custom
Codec ID : XVID
Codec ID/Hint : XviD
Duration : 1h 29mn
Bit rate : 975 Kbps
Width : 720 pixels
Height : 320 pixels
Display aspect ratio : 2.25
Frame rate : 23.976 fps
Resolution : 8 bits
Colorimetry : 4:2:0
Scan type : Progressive
Bits/(Pixel*Frame) : 0.176
Stream size : 621 MiB
Writing library : XviD 1.1.2 (UTC 2006-11-01)
-----------------------------------------------------------------------------------------------------------------------------
Audio
Format : MPEG Audio
Format version : Version 1
Format profile : Layer 3
Codec ID : 55
Codec ID/Hint : MP3
Duration : 1h 29mn
Bit rate mode : Variable
Bit rate : 111 Kbps
Minimum bit rate : 128 Kbps
Channel(s) : 2 channels
Sampling rate : 48.0 KHz
Resolution : 16 bits
Stream size : 71.0 MiB
Writing library : LAME3.97
Encoding settings : ABR
Language : english

You can find me and all of my releases at h33t.com

related torrents

Torrent name

health leech seeds Size

April Fools Day (1986)

0 0 696.66 MB 0
 

comments (0)

Main Menu