Horror

Apartment 1303(2007) Japan Horror Subs ENG FIN SWE NO XviD *DM*

  • Download 5x Faster
  • Download torrent
  • Direct Download
  • Rate this torrent +  |  -
Apartment 1303(2007) Japan Horror Subs ENG FIN SWE NO XviD *DM*

Anonymous and free Direct Download 300GB+


Torrent info

Name:Apartment 1303(2007) Japan Horror Subs ENG FIN SWE NO XviD *DM*

Total Size: 869.89 MB

Magnet: Magnet Link

Seeds: 0

Leechers: 0

Stream: Watch Online @ Movie4u

Last Updated: 0000-00-00 00:00:00 (Update Now)

Torrent added: 2009-08-27 17:09:46



VPN For Torrents

Torrent Files List


APARTMENT_1303_JPN.avi (Size: 869.89 MB) (Files: 6)

 APARTMENT_1303_JPN.avi

869.64 MB

 APARTMENT_1303_JPN.English.srt

36.94 KB

 APARTMENT_1303_JPN.Finnish.srt

29.36 KB

 APARTMENT_1303_JPN.Norwegian.srt

29.18 KB

 APARTMENT_1303_JPN.Swedish.srt

29.41 KB

 Cover_Apartment_1303.jpg

128.03 KB
 

Announce URL:

Torrent description



"Sweet dreams are made of this, who have a mind to disagree,

i traveled the world and the seven seas, everybody is looking for something"...

At least you don't have to move to Japan now, because the PB Ship gives you this

cargo: Japanese Horror Movie: Apartment 1303. Cute Japanese girls in a modern

ghost story. It is good if you like Japanese The Grudge, Ring etc. Only negative

thing is that it is a little too familiar if you have seen Grudge, but the acting

is great and the girls are so cute and some scary moments too. I did enjoy this

movie myself. I'd give it 7,5/10.


Dvd................ PAL DVD FutureFilm Dark Label 2008
Xvid............... 1 136 Kbps
Resolution......... 640x352 (16/9 Full Frame Widescreen)
Audio.............. Japanese mp3 128 kbps vbr (variable bit rate). Really great.
Quality of Xvid.... Superb. Not for a moment will you think "this is .avi" - it
feels like watching the DVD.
Subs............... ENG FIN SWE NO in .srt made by me with SubRip 1.50
Standalone Player.. YES - Subs too ! Read below in FIN and SWE


PS. ALL THIS WAS DONE BY ME 2 DAYS AGO : DvdRip with DvdFab. Xvid conversion with

FairUse Wizard 2. Subs in ENG FIN SWE NO made with SubRip (and YES great .srt-files

so you can watch on PC & TV with your Divx-dvd-player).
-----------------------------------------------------------------------------------

First i did a 750 mb rip, but i was disapointed with the quality (some flickering

in straight balcony edges etc.). So to the Recycle bin with that one. Next i did

this 870 MB version and YES, now it is as good as the dvd. I don't want to give

any turkeys to you. That's why i started doing these encodings in the first place.

I downloaded some aXXo myself, and while some were brilliant then he has some

really bad one's too, like Borat and Ultraviolet, the quality of those were very

disappointing.

The main reason for it is the 700 MB limit size that he is a slave to, in vain.

Then there is Klaxxon, also very good, but filesizes almost always too big (over

1 GB) - so no, i had to start making xvid myself. And i am doing those subs too

all by myself - it means that they are working 100 % sure (and tested by me)

and TV compatible as well.

And contrary to aXXo i am always going for 128 kbps vbr audio because it is really

better (i can easily hear the difference). So that's it... ENJOY THE MOVIE !!!

-----------------------------------------------------------------------------------
I HAVE ADDED MANY OTHER MOVIES LATELY !!! MANY GOOD SEEDERS (Thanks to All of

You !!!) LINK:

http://thepiratebay.org/user/DigieraMandela/

-------------------------------------------------------------------------------

SUOMEKSI: Apartment1303 + .srt-tekstit suomeksi (Tein kaiken itse toissapäivänä!). Näkyy TV:ssä Divx-Dvd-soittimella kun vain muistat nimetä filmin ja tekstityksen täsmälleen samaksi. Esim: Apartment1303.avi ja Apartment1303.srt ja tallenna ne dvd:lle ja johan toimii upeasti. Vain uusimmat Dvd-soittimet kuten Pioneer 2008 joka minulla on, hyväksyy jopa sen että tekstiosan tallentaa näin:
Apartment1303.Finnish.srt (mutta vanhemmat soittimet eivät tunnista jos noin!).
----------------------------------------------------------------------------------
PÅ SVENSKA: Apartment1303 + .srt texter på svenska (Allt gjort av mig iförrgår !). Kan ses på TV med din Divx-Dvd-spelare bara du minns att namnge filmen och text-filen exakt detsamma: tex. Apartment1303.avi och Apartment1303.srt och sedan bränna på DVD.
De allra nyaste DVD-spelarna som min Pioneer 2008 model, kan visa texterna även så här: Apartment1303.Swedish.srt (men som sagt så kan man inte göra med äldre
modeller !)
----------------------------------------------------------------------------------
Log:

General
Complete name : G:XviD movies by me with FairUse Wizard 2Apartment 1303 Japanese Horror Subs FIN SWE NO ENG (.srt) XviDAPARTMENT_1303_JPN.avi
Format : AVI
Format/Info : Audio Video Interleave
File size : 870 MiB
Duration : 1h 36mn
Overall bit rate : 1 261 Kbps
Writing application : FairUse Wizard - http://fairusewizard.com
Writing library : The best and REALLY easy backup tool

Video
Format : MPEG-4 Visual
Format profile : Streaming [email protected]
Format settings, BVOP : Yes
Format settings, QPel : No
Format settings, GMC : No warppoints
Format settings, Matrix : Default
Muxing mode : Packed bitstream
Codec ID : DX50
Codec ID/Hint : DivX 5
Duration : 1h 36mn
Bit rate : 1 136 Kbps
Width : 640 pixels
Height : 352 pixels
Display aspect ratio : 16/9
Frame rate : 25.000 fps
Resolution : 24 bits
Colorimetry : 4:2:0
Scan type : Progressive
Bits/(Pixel*Frame) : 0.202
Stream size : 783 MiB (90%)
Writing library : XviD 1.2.0.dev47 (UTC 2006-11-01)

Audio
Format : MPEG Audio
Format version : Version 1
Format profile : Layer 3
Codec ID : 55
Codec ID/Hint : MP3
Duration : 1h 36mn
Bit rate mode : Variable
Bit rate : 112 Kbps
Minimum bit rate : 128 Kbps
Channel(s) : 2 channels
Sampling rate : 48.0 KHz
Resolution : 16 bits
Stream size : 77.3 MiB (9%)
Alignment : Aligned on interleaves
Interleave, duration : 24 ms (0.60 video frame)
Interleave, preload duration : 558 ms
Writing library : LAME3.97
Encoding settings : ABR

related torrents

Torrent name

health leech seeds Size
 


comments (0)

Main Menu