Horror

Alien Quadtrilogie German AC3 DL HDTV x264

  • Download 5x Faster
  • Download torrent
  • Direct Download
  • Rate this torrent +  |  -
Alien Quadtrilogie German AC3 DL HDTV x264

Free and Direct Download with Usenet.nl 300GB+ free


Torrent info

Name:Alien Quadtrilogie German AC3 DL HDTV x264

Total Size: 26.56 GB

Magnet: Magnet Link

Seeds: 0

Leechers: 0

Stream: Watch Online @ Movie4u

Last Updated: 2012-04-09 20:14:33 (Update Now)

Torrent added: 2009-08-27 16:51:48





Torrent Files List


Alien.1.HDTV.720p.x264.German (Size: 26.56 GB) (Files: 4)

 Alien.1.HDTV.720p.x264.German

  Alien.HDTV.720p.x264.German.mkv

4.37 GB

 Alien.3.1992.720p.German.AC3D.DL.HDTV

  Alien.3.1992.720p.German.AC3D.DL.HDTV.mkv

6.74 GB

 Alien.2.SE.GER.720p.x264-CDD

  cdd-aliens_se_ger_720p_x264.mkv

7.61 GB

 Alien.4.Resurrection.1997.German.AC3.DL.1080p.HDTV.x264

  Alien.Resurrection.1997.German.AC3.DL.1080p.HDTV.x264.mkv

7.85 GB
 

Announce URL:

Torrent description

Alien.1.HDTV.720p.x264.German

Die Besatzung des Weltraumfrachters Nostromo entdeckt auf
einem abgelegenen Planeten die bel zugerichteten Reste einer
extraterrestrischen Raumfahrtmission und fngt sich dabei einen
blinden Passagier ein. Der ungebetene Gast, ein rasant wachsendes,
intelligentes Echsenmonster, macht sich an Bord der Nostromo
selbstndig und beginnt aus den weitlufigen Lftungsanlagen heraus
einen gnadenlosen Vernichtungsfeldzug gegen die Mannschaft.

Format : Matroska
File size : 4.37 GiB
Duration : 1h 56mn
Overall bit rate : 5 369 Kbps
Encoded date : UTC 2007-03-01 19:24:30
Writing application : mkvmerge v2.0.0 ('After The Rain Has Fallen&39 built on Jan 13 2007 19:58:56
Writing library : libebml v0.7.7 + libmatroska v0.8.0
Cover : Yes

Video
ID : 1
Format : AVC
Format/Info : Advanced Video Codec
Format profile : HighL5.1
Format settings, CABAC : Yes
Format settings, ReFrames : 11 frames
Muxing mode : Container profile=Unknown5.1
Codec ID : V_MPEG4/ISO/AVC
Duration : 1h 56mn
Bit rate : 4 494 Kbps
Nominal bit rate : 4 596 Kbps
Width : 1 280 pixels
Height : 720 pixels
Display aspect ratio : 16/9
Frame rate : 23.976 fps
Resolution : 24 bits
Colorimetry : 4:2:0
Scan type : Progressive
Bits/(Pixel*Frame) : 0.203
Stream size : 3.66 GiB (84)
Writing library : x264 core 54 svn-602M
Encoding settings : cabac=1 / ref=8 / deblock=1:0:0 / analyse=0x3:0x133 / me=hex / subme=6 / brdo=1 / mixed_ref=1 / me_range=16 / chroma_me=1 / trellis=1 / 8x8dct=1 / cqm=0 / deadzone=21,11 / chroma_qp_offset=0 / slices=2 / nr=0 / decimate=1 / mbaff=0 / bframes=3 / b_pyramid=1 / b_adapt=1 / b_bias=0 / direct=1 / wpredb=1 / bime=1 / keyint=250 / keyint_min=25 / scenecut=40 / rc=2pass / bitrate=4596 / ratetol=1.0 / rceq='blurCplx(1-qComp)' / qcomp=0.60 / qpmin=10 / qpmax=51 / qpstep=4 / cplxblur=20.0 / qblur=0.5 / ip_ratio=1.40 / pb_ratio=1.30
Language : German

Audio 1
ID : 2
Format : AC-3
Format/Info : Audio Coding 3
Codec ID : A_AC3
Duration : 1h 56mn
Bit rate mode : Constant
Bit rate : 384 Kbps
Channel(s) : 6 channels
Channel positions : Front: L C R, Surround: L R, LFE
Sampling rate : 48.0 KHz
Stream size : 320 MiB (7)
Language : German

Audio 2
ID : 3
Format : AC-3
Format/Info : Audio Coding 3
Codec ID : A_AC3
Duration : 1h 56mn
Bit rate mode : Constant
Bit rate : 384 Kbps
Channel(s) : 6 channels
Channel positions : Front: L C R, Surround: L R, LFE
Sampling rate : 48.0 KHz
Stream size : 320 MiB (7)
Language : English

Aliens.Die.Rueckkehr.Special.Edition.1986.German.AC3D.720p.HDTV.x264-CDD

Astronautin Ripley, die vor Jahren die Attacke eines Aliens berlebte, kehrt
mit einem Platoon der US-Army zurck an die Sttte des Schreckens, um
der mrderischen Brut ein fr allemal den Garaus zu machen. Vor Ort
stoen die gut gersteten Elitekrieger auf einen Feind, der ihnen sowohl
zahlenmig als auch "moralisch" bei weitem berlegen ist. Es kommt
zu einem vernichtenden Massaker, das in einem Frau-gegen-Frau-Duell
zwischen Ripley und der Mutter aller Aliens gipfelt.

see the difference !

CLASSiCS DONT DiE - HiGH DEFiNiTION

MOViE.......: Aliens - Die Rueckkehr (Special Edition)
YEAR........: 1986

RELEASE DATE: 18.01.2009 ViDEO RESOLUTiON.: 720p
AiR DATE....: 12.01.2009 ViDEO CONTAiNER..: .MKV
SiZE........: 83x100MB ViDEO BiTRATE....: 6740kbps
PLAYTiME....: 154 min ViDEO FORMAT.....: X264
GENRE.......: Sci-Fi AUDiO LANGUAGES..: GER
SUBTiTLES...: NO AUDiO FORMAT.....: DD5.1 448kbps (Retail DVD)
SOURCE......: HDTV ASPECT RATiO.....: 1.85 : 1

iMDB........: http://german.imdb.com/title/tt0090605/
USER RATiNG.: 8,5/10 (136.482)

dont expect any 1080p release in this poor quality

We are now recruiting HDDVD/BLURAY suppliers, if you think you
can help us out don't hesitate to contact us at:

cookiemasters[at]hush[dot]ai

you won't regret it

THE FOLLOWiNG GROUPS WE WOULD LiKE TO GREET

DAW SOF RAF JSpec

JRP YSP ISGM

Alien.3.1992.720p.German.AC3D.DL.HDTV.x264

Nach ihrer letzten Begegnung mit den Aliens strandet
Ellen Ripley (Sigourney Weaver) auf einem streng bewachten
Gefngnisplaneten. Die einsitzenden Mnner zhlen zu den
brutalsten Kriminellen des Universums - eine Frau haben
sie seit Jahren oder gar Jahrzehnten nicht gesehen.. Doch
sie stellen nicht die einzige Bedrohung dar, denn Ripley
ist nicht alleine gekommen Wie verteidigt man sich auf
einem waffenlosen Planeten gegen bermchtigen Aliens? Kult-
Regisseur David Fincher (Sieben, Fight Club) kreiert eine
faszinierende Szenerie des Misstrauens und der Angst vor der
bermchtigen Bedrohung, die berall lauern kann.

Format : Matroska
File size : 6.74 GiB
Duration : 1h 54mn
Overall bit rate : 8 395 Kbps
Movie name : Avidemux
Encoded date : UTC 2009-02-06 16:28:15
Writing application : mkvmerge v2.4.1 ('Use Me&39 built on Dec 5 2008 18:30:05
Writing library : libebml v0.7.7 + libmatroska v0.8.1

Video
ID : 1
Format : AVC
Format/Info : Advanced Video Codec
Format profile : HighL5.1
Format settings, CABAC : Yes
Format settings, ReFrames : 5 frames
Muxing mode : Container profile=Unknown5.1
Codec ID : V_MPEG4/ISO/AVC
Duration : 1h 54mn
Bit rate : 7 332 Kbps
Nominal bit rate : 7 500 Kbps
Width : 1 280 pixels
Height : 720 pixels
Display aspect ratio : 16/9
Frame rate : 23.976 fps
Resolution : 24 bits
Colorimetry : 4:2:0
Scan type : Progressive
Bits/(Pixel*Frame) : 0.332
Stream size : 5.88 GiB (87)
Title : Alien 3 - HDTV 720p
Writing library : x264 core 58 svn-736M
Encoding settings : cabac=1 / ref=5 / deblock=1:-2:-1 / analyse=0x3:0x113 / me=umh / subme=6 / me-prepass=0 / brdo=1 / mixed_ref=1 / me_range=16 / chroma_me=1 / trellis=1 / 8x8dct=1 / cqm=2 / deadzone=21,11 / chroma_qp_offset=0 / threads=3 / nr=0 / decimate=1 / mbaff=0 / bframes=16 / b_pyramid=1 / b_adapt=1 / b_bias=0 / direct=3 / wpredb=1 / bime=1 / keyint=250 / keyint_min=25 / scenecut=40(pre) / rc=2pass / bitrate=7500 / ratetol=1.0 / rceq='blurCplx(1-qComp)' / qcomp=1.00 / qpmin=10 / qpmax=51 / qpstep=4 / cplxblur=20.0 / qblur=0.5 / ip_ratio=1.40 / pb_ratio=1.30 / aq=1:0.5:13.0

Audio 1
ID : 2
Format : AC-3
Format/Info : Audio Coding 3
Codec ID : A_AC3
Duration : 1h 54mn
Bit rate mode : Constant
Bit rate : 448 Kbps
Channel(s) : 6 channels
Channel positions : Front: L C R, Surround: L R, LFE
Sampling rate : 48.0 KHz
Video delay : -83ms
Stream size : 368 MiB (5)
Title : Englisch AC3 5.1
Language : English

Audio 2
ID : 3
Format : AC-3
Format/Info : Audio Coding 3
Codec ID : A_AC3
Duration : 1h 54mn
Bit rate mode : Constant
Bit rate : 448 Kbps
Channel(s) : 6 channels
Channel positions : Front: L C R, Surround: L R, LFE
Sampling rate : 48.0 KHz
Video delay : -74ms
Stream size : 368 MiB (5)
Title : German AC3 5.1
Language : German

Alien.Resurrection.1997.German.AC3.DL.1080p.HDTV.x264

Beschreibung:
Ellen Ripley starb im Kampf gegen den perfekten auerirdischen Killerorganismus. 200 Jahre spter kehrt sie als Ergebnis eines Cloning-Experimentes zurck - halb Mensch, halb Alien. Skrupellose Wissenschaftler entfernen aus ihrem Krper eine neue Dimension von Alien-Knigin. Damit nimmt der Terror an Bord der Raumstation seinen blutigen Lauf. Diesmal tritt Ripley den Kampf gegen ihre eigenen Artgenossen an. Auf wessen Seiten sie wirklich steht, wei niemand.

Media-Info :
Format : Matroska
Dateigre : 7,85 GiB
Dauer : 1h 44min
Gesamte Bitrate : 10,8 Mbps
Filmname : Alien Ressurection (X264 1080p HDTV Dual AC3 Sub)(Grupo HDS)
Kodierungs-Datum : UTC 2008-12-22 21:40:53
Kodierendes Programm : mkvmerge v2.4.1 ('Use Me&39 built on Dec 5 2008 15:43:32
verwendete Encoder-Bibliothek : libebml v0.7.7 + libmatroska v0.8.1

Video
Format : AVC
Format/Info : Advanced Video Codec
Format-Profil : HighL4.1
Format-Einstellungen fr CABAC : Ja
Format-Einstellungen fr ReFrame : 3 frames
Muxing-Modus : Container profile=Unknown4.1
Codec-ID : V_MPEG4/ISO/AVC
Dauer : 1h 44min
Bitrate : 9 544 Kbps
Breite : 1 920 Pixel
Hhe : 812 Pixel
Bildseitenverhltnis : 2.35
Bildwiederholungsrate : 25,000 FPS
Auflsung : 24 bits
Colorimetrie : 4:2:0
Scantyp : progressiv
Bits/(Pixel*Frame) : 0.245
Titel : Alien Ressurrection 1080p
Sprache : Spanisch

Audio 1
Format : AC-3
Format/Info : Audio Coding 3
Codec-ID : A_AC3
Dauer : 1h 44min
Bitraten-Modus : konstant
Bitrate : 384 Kbps
Kanle : 6 Kanle
Kanal-Positionen : Front: L C R, Surround: L R, LFE
Samplingrate : 48,0 KHz
Titel : Deutsch AC3
Sprache : Deutsch

Audio 2
Format : AC-3
Format/Info : Audio Coding 3
Codec-ID : A_AC3
Dauer : 1h 44min
Bitraten-Modus : konstant
Bitrate : 384 Kbps
Kanle : 6 Kanle
Kanal-Positionen : Front: L C R, Surround: L R, LFE
Samplingrate : 48,0 KHz
Titel : Audio Ac3 5.1 Ingles
Sprache : Englisch

related torrents

Torrent name

health leech seeds Size
 

comments (0)

Main Menu