Horror

Alice Sweet Alice 1976 UNCUT DVDRip XviD[

  • Download 5x Faster
  • Download torrent
  • Direct Download
  • Rate this torrent +  |  -
Alice Sweet Alice 1976 UNCUT DVDRip XviD[

Anonymous and Free Direct Download


Torrent info

Name:Alice Sweet Alice 1976 UNCUT DVDRip XviD[

Total Size: 891.73 MB

Magnet: Magnet Link

Seeds: 0

Leechers: 0

Stream: Watch Online @ Movie4u

Last Updated: 2010-12-17 21:40:19 (Update Now)

Torrent added: 2009-08-27 16:50:05



VPN For Torrents

Torrent Files List


Alice Sweet Alice.1976.UNCUT.DVDRip.nfo (Size: 891.73 MB) (Files: 65)

 Alice Sweet Alice.1976.UNCUT.DVDRip.nfo

11.14 KB

 Alice Sweet Alice.1976.UNCUT.DVDRip.part01.rar

14.31 MB

 Alice Sweet Alice.1976.UNCUT.DVDRip.part02.rar

14.31 MB

 Alice Sweet Alice.1976.UNCUT.DVDRip.part03.rar

14.31 MB

 Alice Sweet Alice.1976.UNCUT.DVDRip.part04.rar

14.31 MB

 Alice Sweet Alice.1976.UNCUT.DVDRip.part05.rar

14.31 MB

 Alice Sweet Alice.1976.UNCUT.DVDRip.part06.rar

14.31 MB

 Alice Sweet Alice.1976.UNCUT.DVDRip.part07.rar

14.31 MB

 Alice Sweet Alice.1976.UNCUT.DVDRip.part08.rar

14.31 MB

 Alice Sweet Alice.1976.UNCUT.DVDRip.part09.rar

14.31 MB

 Alice Sweet Alice.1976.UNCUT.DVDRip.part10.rar

14.31 MB

 Alice Sweet Alice.1976.UNCUT.DVDRip.part11.rar

14.31 MB

 Alice Sweet Alice.1976.UNCUT.DVDRip.part12.rar

14.31 MB

 Alice Sweet Alice.1976.UNCUT.DVDRip.part13.rar

14.31 MB

 Alice Sweet Alice.1976.UNCUT.DVDRip.part14.rar

14.31 MB

 Alice Sweet Alice.1976.UNCUT.DVDRip.part15.rar

14.31 MB

 Alice Sweet Alice.1976.UNCUT.DVDRip.part16.rar

14.31 MB

 Alice Sweet Alice.1976.UNCUT.DVDRip.part17.rar

14.31 MB

 Alice Sweet Alice.1976.UNCUT.DVDRip.part18.rar

14.31 MB

 Alice Sweet Alice.1976.UNCUT.DVDRip.part19.rar

14.31 MB

 Alice Sweet Alice.1976.UNCUT.DVDRip.part20.rar

14.31 MB

 Alice Sweet Alice.1976.UNCUT.DVDRip.part21.rar

14.31 MB

 Alice Sweet Alice.1976.UNCUT.DVDRip.part22.rar

14.31 MB

 Alice Sweet Alice.1976.UNCUT.DVDRip.part23.rar

14.31 MB

 Alice Sweet Alice.1976.UNCUT.DVDRip.part24.rar

14.31 MB

 Alice Sweet Alice.1976.UNCUT.DVDRip.part25.rar

14.31 MB

 Alice Sweet Alice.1976.UNCUT.DVDRip.part26.rar

14.31 MB

 Alice Sweet Alice.1976.UNCUT.DVDRip.part27.rar

14.31 MB

 Alice Sweet Alice.1976.UNCUT.DVDRip.part28.rar

14.31 MB

 Alice Sweet Alice.1976.UNCUT.DVDRip.part29.rar

14.31 MB

 Alice Sweet Alice.1976.UNCUT.DVDRip.part30.rar

14.31 MB

 Alice Sweet Alice.1976.UNCUT.DVDRip.part31.rar

14.31 MB

 Alice Sweet Alice.1976.UNCUT.DVDRip.part32.rar

14.31 MB

 Alice Sweet Alice.1976.UNCUT.DVDRip.part33.rar

14.31 MB

 Alice Sweet Alice.1976.UNCUT.DVDRip.part34.rar

14.31 MB

 Alice Sweet Alice.1976.UNCUT.DVDRip.part35.rar

14.31 MB

 Alice Sweet Alice.1976.UNCUT.DVDRip.part36.rar

14.31 MB

 Alice Sweet Alice.1976.UNCUT.DVDRip.part37.rar

14.31 MB

 Alice Sweet Alice.1976.UNCUT.DVDRip.part38.rar

14.31 MB

 Alice Sweet Alice.1976.UNCUT.DVDRip.part39.rar

14.31 MB

 Alice Sweet Alice.1976.UNCUT.DVDRip.part40.rar

14.31 MB

 Alice Sweet Alice.1976.UNCUT.DVDRip.part41.rar

14.31 MB

 Alice Sweet Alice.1976.UNCUT.DVDRip.part42.rar

14.31 MB

 Alice Sweet Alice.1976.UNCUT.DVDRip.part43.rar

14.31 MB

 Alice Sweet Alice.1976.UNCUT.DVDRip.part44.rar

14.31 MB

 Alice Sweet Alice.1976.UNCUT.DVDRip.part45.rar

14.31 MB

 Alice Sweet Alice.1976.UNCUT.DVDRip.part46.rar

14.31 MB

 Alice Sweet Alice.1976.UNCUT.DVDRip.part47.rar

14.31 MB

 Alice Sweet Alice.1976.UNCUT.DVDRip.part48.rar

14.31 MB

 Alice Sweet Alice.1976.UNCUT.DVDRip.part49.rar

14.31 MB

 Alice Sweet Alice.1976.UNCUT.DVDRip.part50.rar

14.31 MB

 Alice Sweet Alice.1976.UNCUT.DVDRip.part51.rar

14.31 MB

 Alice Sweet Alice.1976.UNCUT.DVDRip.part52.rar

14.31 MB

 Alice Sweet Alice.1976.UNCUT.DVDRip.part53.rar

14.31 MB

 Alice Sweet Alice.1976.UNCUT.DVDRip.part54.rar

14.31 MB

 Alice Sweet Alice.1976.UNCUT.DVDRip.part55.rar

14.31 MB

 Alice Sweet Alice.1976.UNCUT.DVDRip.part56.rar

14.31 MB

 Alice Sweet Alice.1976.UNCUT.DVDRip.part57.rar

14.31 MB

 Alice Sweet Alice.1976.UNCUT.DVDRip.part58.rar

14.31 MB

 Alice Sweet Alice.1976.UNCUT.DVDRip.part59.rar

14.31 MB

 Alice Sweet Alice.1976.UNCUT.DVDRip.part60.rar

14.31 MB

 Alice Sweet Alice.1976.UNCUT.DVDRip.part61.rar

14.31 MB

 Alice Sweet Alice.1976.UNCUT.DVDRip.part62.rar

14.31 MB

 Alice Sweet Alice.1976.UNCUT.DVDRip.part63.rar

4.80 MB

 Alice Sweet Alice.1976.UNCUT.DVDRip.sfv

8.88 KB
 

Announce URL: http://tracker.ilovetorrents.com/announce.php

Torrent description

Alice Sweet Alice.1976.UNCUT.DVDRip

Format : AVI
Format/Info : Audio Video Interleave
File size : 896 MiB
Duration : 1h 46mn
Overall bit rate : 1176 Kbps
Writing application : VirtualDubMod 1.5.10.2 (build 2540/release)
Writing library : VirtualDubMod build 2540/release
Copyright : Ripped By KooKoo

Video
Format : MPEG-4 Visual
Format profile : Streaming [email protected]
Format settings, BVOP : Yes
Format settings, QPel : No
Format settings, GMC : No warppoints
Format settings, Matrix : Default
Muxing mode : Packet Bitstream
Codec ID : XVID
Codec ID/Hint : XviD
Duration : 1h 46mn
Bit rate : 1038 Kbps
Width : 608 pixels
Height : 336 pixels
Display aspect ratio : 16/9
Frame rate : 23.976 fps
Resolution : 8 bits
Colorimetry : 4:2:0
Scan type : Progressive
Bits/(Pixel*Frame) : 0.212
Stream size : 791 MiB (88%)
Writing library : XviD 1.2.0.dev47 (UTC 2006-11-01)

Audio
Format : AC-3
Format/Info : Audio Coding 3
Codec ID : 2000
Duration : 1h 46mn
Bit rate mode : Constant
Bit rate : 128 Kbps
Channel(s) : 1 channel
Channel positions : C
Sampling rate : 48.0 KHz
Stream size : 97.5 MiB (11%)
Alignment : Split accross interleaves
Interleave, duration : 42 ms (1.00 video frame)
Interleave, preload duration : 500 ms


Alice Spages (Paula Sheppard) is a withdrawn 12 year old girl
who lives with her mother, Catherine (Linda Miller), and her
younger sister, Karen (Brooke Shields). Karen gets most of the
attention from her mother, and Alice is often left out of the
spotlight. But when Karen is found brutally murdered in a church
before her first holy communion, all suspicions are turned
turned towards Alice. But is a twelve year old girl really capable
of such savagery? As more people begin to die at the hands of a
merciless killer, Alice becomes more and more likely of a suspect.

Link: http://www.imdb.com/title/tt0076150/
Join us at ilovetorrents.com for our "Halloween Horror Marathon", throughout all October

related torrents

Torrent name

health leech seeds Size
 


comments (0)

Main Menu