Horror

Against theDark(2009)DvdScr DKRG

  • Download 5x Faster
  • Download torrent
  • Direct Download
  • Rate this torrent +  |  -
Against theDark(2009)DvdScr DKRG

Free and Direct Download with Usenet.nl 300GB+ free


Torrent info

Name:Against theDark(2009)DvdScr DKRG

Total Size: 690.27 MB

Magnet: Magnet Link

Seeds: 0

Leechers: 0

Stream: Watch Online @ Movie4u

Last Updated: 2009-11-29 11:07:36 (Update Now)

Torrent added: 2009-08-27 16:47:38





Torrent Files List


Against.theDark(2009)DvdScr-DKRG.avi (Size: 690.27 MB) (Files: 4)

 Against.theDark(2009)DvdScr-DKRG.avi

690.20 MB

 DARKKINGDOMRG.nfo

2.30 KB

 poster.jpg

66.98 KB

 Torrent downloaded from Demonoid.com.txt

0.05 KB
 

Announce URL: http://inferno.demonoid.com:3404/announce

Torrent description

Against theDark(2009)DvdScr DKRG preview 0


Format : AVI
Format/Info : Audio Video Interleave
File size : 690 MiB
Duration : 1h 33mn
Overall bit rate : 1 028 Kbps

Video
Format : MPEG-4 Visual
Format settings, BVOP : Yes
Format settings, QPel : No
Format settings, GMC : No warppoints
Format settings, Matrix : Default
Codec ID : DX50
Codec ID/Hint : DivX 5
Duration : 1h 33mn
Bit rate : 888 Kbps
Width : 560 pixels
Height : 368 pixels
Display aspect ratio : 1.522
Frame rate : 29.969 fps
Resolution : 24 bits
Colorimetry : 4:2:0
Scan type : Progressive
Bits/(Pixel*Frame) : 0.144
Stream size : 596 MiB (86%)
Writing library : DivX 6.0.0 (UTC 2005-06-15)

Audio
Format : MPEG Audio
Format version : Version 1
Format profile : Layer 3
Codec ID : 55
Codec ID/Hint : MP3
Duration : 1h 33mn
Bit rate mode : Constant
Bit rate : 128 Kbps
Channel(s) : 2 channels
Sampling rate : 48.0 KHz
Resolution : 16 bits
Stream size : 86.0 MiB (12%)
Alignment : Split accross interleaves
Interleave, duration : 33 ms (1.00 video frame)
Interleave, preload duration : 500 ms

Against theDark(2009)DvdScr DKRG preview 1
Against theDark(2009)DvdScr DKRG preview 2
Against theDark(2009)DvdScr DKRG preview 3
Against theDark(2009)DvdScr DKRG preview 4

related torrents

Torrent name

health leech seeds Size
 

comments (0)

Main Menu