Horror

Aenigma 1987 DVDRip Eng UNRATED XviD KooKoo[1337x]

  • Download 5x Faster
  • Download torrent
  • Direct Download
  • Rate this torrent +  |  -
Aenigma 1987 DVDRip Eng UNRATED XviD KooKoo[1337x]

Anonymous and Free Direct Download 300GB+


Torrent info

Name:Aenigma 1987 DVDRip Eng UNRATED XviD KooKoo[1337x]

Total Size: 799.86 MB

Magnet: Magnet Link

Seeds: 2

Leechers: 3

Stream: Watch Online @ Movie4u

Last Updated: 2010-11-25 15:56:31 (Update Now)

Torrent added: 2009-08-27 16:42:42



VPN For Torrents

Torrent Files List


1337x.txt (Size: 799.86 MB) (Files: 3)

 1337x.txt

0.02 KB

 Aenigma.1987.DVDRip.Eng.UNRATED.XviD-KooKoo.avi

799.85 MB

 KooKoo.nfo

2.81 KB
 

Announce URL: http://genesis.1337x.org:1337/announce

Torrent description

--KooKoo--



Movie Name: Aenigma
Genre: Horror
Release Date: 1987
Country: Italy
Certification: NR
IMDB Link: http://www.imdb.com/title/tt0092516/

Plot: A girl is in a coma because of an atrocious prank played by her
schoolmates and takes her revenge from her hospital bed. She
takes possession of the body of a new pupil in her ex-school
and begins to dispose of whoever did her wrong.



Rip Details:

Aenigma.1987.DVDRip.Eng.UNRATED.XviD-KooKoo


Format : AVI
Format/Info : Audio Video Interleave
File size : 800 MiB
Duration : 1h 25mn
Overall bit rate : 1306 Kbps
Writing application : VirtualDubMod 1.5.10.2 (build 2540/release)
Writing library : VirtualDubMod build 2540/release
Copyright : Ripped By KooKoo

Video
Format : MPEG-4 Visual
Format profile : Streaming [email protected]
Format settings, BVOP : Yes
Format settings, QPel : No
Format settings, GMC : No warppoints
Format settings, Matrix : Default
Muxing mode : Packet Bitstream
Codec ID : DX50
Codec ID/Hint : DivX 5
Duration : 1h 25mn
Bit rate : 1166 Kbps
Width : 624 pixels
Height : 336 pixels
Display aspect ratio : 1.857
Frame rate : 29.970 fps
Resolution : 8 bits
Colorimetry : 4:2:0
Scan type : Progressive
Bits/(Pixel*Frame) : 0.186
Stream size : 714 MiB (89%)
Writing library : XviD 1.2.0.dev47 (UTC 2006-11-01)

Audio
Format : MPEG Audio
Format version : Version 1
Format profile : Layer 3
Codec ID : 55
Codec ID/Hint : MP3
Duration : 1h 25mn
Bit rate mode : Constant
Bit rate : 128 Kbps
Minimum bit rate : 128 Kbps
Channel(s) : 2 channels
Sampling rate : 48.0 KHz
Resolution : 16 bits
Stream size : 78.4 MiB (10%)
Alignment : Aligned on interleaves
Interleave, duration : 33 ms (1.00 video frame)
Interleave, preload duration : 504 ms
Writing library : LAME3.97
Encoding settings : CBR



Additional Details

Source: DVD/NTSC
Language: English
Subtitles: No



--1337x--

related torrents

Torrent name

health leech seeds Size
 


comments (0)

Main Menu