Jazz

(JazzPlanet) Marcus Miller Panther Live [Eac Flac Cue] UF SPG

  • Download 5x Faster
  • Download torrent
  • Direct Download
  • Rate this torrent +  |  -
(JazzPlanet) Marcus Miller Panther Live [Eac Flac Cue] UF SPG

Free and Direct Download with Usenet.nl 300GB+ free


Torrent info

Name:(JazzPlanet) Marcus Miller Panther Live [Eac Flac Cue] UF SPG

Total Size: 278.46 MB

Magnet: Magnet Link

Seeds: 0

Leechers: 0

Stream: Watch Online @ Movie4u

Last Updated: 2016-02-03 02:53:18 (Update Now)

Torrent added: 2009-08-27 16:34:06





Torrent Files List


scans (Size: 278.46 MB) (Files: 6)

 scans

  Marcus Miller - Panther Live - rear0001.jpg

1.84 MB

  marcus miller - panther live - disc0001.jpg

1.21 MB

  marcus miller - panther live - front0001.jpg

1.63 MB

 Marcus Miller - Live.cue

0.71 KB

 Marcus Miller - Live.flac

273.77 MB

 Marcus Miller - Live.log

2.61 KB
 

tracker

leech seeds
 

Torrent description

Marcus Miller - Panther/Live

Title: Panther/Live
Leader Artist: Marcus Miller
Genre: Jazz
Audio CD : 1988
Number of Discs: 1
Format: Live
Label: Jazz Door
Extractor: EAC 0.99 prebeta 5
Read Mode: Secure with NO C2, accurate stream, disable cache.
Codec: Flac 1.2.1b; Level 6
Files: Wav image track, file.Cue, Eac.log
Size Torrent: 278 Mb
Cover Inclused

Tracklist

1. Panther
2. Scoop
3. Steveland
4. Rampage
5. Tutu
6. Ju Ju

Personell

Marcus Miller - Bass Guitar
Kenny Garrett - Saxophone
Michael Stewart - Trumpet
Bernard Wright - Keyboards
Morris Pleasure - Keyboards
Poogie Bell - drums

Eac Log

Exact Audio Copy V0.99 prebeta 5 from 4. May 2009

EAC extraction logfile from 24. August 2009, 20:23

Marcus Miller / Live

Used drive : ASUS DRW-2014L1T Adapter: 1 ID: 1

Read mode : Secure
Utilize accurate stream : Yes
Defeat audio cache : Yes
Make use of C2 pointers : No

Read offset correction : 6
Overread into Lead-In and Lead-Out : No
Fill up missing offset samples with silence : Yes
Delete leading and trailing silent blocks : No
Null samples used in CRC calculations : Yes
Used interface : Installed external ASPI interface

Used output format : User Defined Encoder
Selected bitrate : 1024 kBit/s
Quality : High
Add ID3 tag : No
Command line compressor : C:\Program Files\FLAC\flac.exe
Additional command line options : -6 -V -T "ARTIST=%a" -T "TITLE=%t" -T "ALBUM=%g" -T "DATE=%y" -T "TRACKNUMBER=%n" -T "GENRE=%m" -T "COMMENT=%e" %s -o %d


TOC of the extracted CD

Track | Start | Length | Start sector | End sector
---------------------------------------------------------
1 | 0:00.00 | 8:14.22 | 0 | 37071
2 | 8:14.22 | 8:52.66 | 37072 | 77037
3 | 17:07.13 | 9:25.32 | 77038 | 119444
4 | 26:32.45 | 7:47.70 | 119445 | 154539
5 | 34:20.40 | 8:19.12 | 154540 | 191976
6 | 42:39.52 | 8:05.40 | 191977 | 228391


Range status and errors

Selected range

Filename M:\da rellare\(JazzPlanet) Marcus Miller - Panther Live [Eac-Flac-cue] UF SPG\Marcus Miller - Live.wav

Peak level 87.1 %
Range quality 100.0 %
Test CRC EAF856E7
Copy CRC EAF856E7
Copy OK

No errors occurred


AccurateRip summary

Track 1 cannot be verified as accurate (confidence 1) [22B8F7DE], AccurateRip returned [0E27814A]
Track 2 cannot be verified as accurate (confidence 1) [2EB8A469], AccurateRip returned [A771E1D7]
Track 3 cannot be verified as accurate (confidence 1) [F92CA562], AccurateRip returned [22D07C3A]
Track 4 cannot be verified as accurate (confidence 1) [5E6D46A2], AccurateRip returned [613AC841]
Track 5 cannot be verified as accurate (confidence 1) [5865C2D4], AccurateRip returned [05B2674D]
Track 6 cannot be verified as accurate (confidence 1) [2985E736], AccurateRip returned [A316BC82]

No tracks could be verified as accurate
You may have a different pressing from the one(s) in the database

End of status report

Bandwith

500 Kb/sec 24/7

related torrents

Torrent name

health leech seeds Size
 

comments (0)

Main Menu