Horror

1408 2007 DVDRIP ZEKTORM

  • Download 5x Faster
  • Download torrent
  • Direct Download
  • Rate this torrent +  |  -
1408 2007 DVDRIP ZEKTORM

Free and Direct Download with Usenet.nl 300GB+ free


Torrent info

Name:1408 2007 DVDRIP ZEKTORM

Total Size: 710.10 MB

Magnet: Magnet Link

Seeds: 0

Leechers: 0

Stream: Watch Online @ Movie4u

Last Updated: 2010-05-21 17:23:11 (Update Now)

Torrent added: 2009-08-27 16:15:17





Torrent Files List


1408-2007.DVDRIP-ZEKTORM.mp4 (Size: 710.10 MB) (Files: 4)

 1408-2007.DVDRIP-ZEKTORM.mp4

700.30 MB

 READ.hlp

12.64 KB

 Subs

  1408-2007.DVDRIP-ZEKTORM.idx

120.76 KB

  1408-2007.DVDRIP-ZEKTORM.sub

9.68 MB
 

Announce URL: http://eztv.tracker.thepiratebay.org:80/announce

Torrent description

Title : 1408
Year : 2007
Genre : Drama | Horror | Thriller
iMDB Rate : User Rating: 6.9/10 55,656 votes
iMDB URL : http://www.imdb.com/title/tt0450385/
Awards : 1 win & 4 nominations

Complete name : 1408-2007.DVDRIP-ZEKTORM.mp4
Format : MPEG-4
Format profile : Base Media
Codec ID : isom
File size : 700 MiB
Duration : 1h 52mn
Overall bit rate : 871 Kbps
Subtitles : English, Spanish (Format: VobSub)
Source : DVD NTSC
Encoded date : UTC 2009-01-24 15:53:54

Video
Format : AVC
Format/Info : Advanced Video Codec
Format profile : [email protected]
Format settings, CABAC : Yes
Format settings, ReFrames : 10 frames
Codec ID : avc1
Codec ID/Info : Advanced Video Coding
Duration : 1h 52mn
Bit rate mode : Variable
Bit rate : 786 Kbps
Maximum bit rate : 6399 Kbps
Width : 720 pixels
Height : 352 pixels
Display aspect ratio : 2.479
Frame rate mode : Constant
Frame rate : 23.976 fps
Resolution : 24 bits
Colorimetry : 4:2:0
Scan type : Progressive
Bits/(Pixel*Frame) : 0.129
Stream size : 632 MiB (90%)
Title : Video
Writing library : x264 core 60 r900 a9af942

Audio
Format : AAC
Format/Info : Advanced Audio Codec
Format version : Version 4
Format profile : LC
Format settings, SBR : Yes
Format settings, PS : No
Codec ID : 40
Duration : 1h 52mn
Bit rate mode : Variable
Bit rate : 82.3 Kbps
Maximum bit rate : 106 Kbps
Channel(s) : 2 channels
Channel positions : L R
Sampling rate : 48.0 KHz
Resolution : 16 bits
Stream size : 66.2 MiB (9%)
Title : English
Language : English

Notes : Convert to DVD with Nero

related torrents

Torrent name

health leech seeds Size
 

comments (0)

Main Menu