Horror

100 Tears (Uncut) 2007 DVDRip XviD

  • Download 5x Faster
  • Download torrent
  • Direct Download
  • Rate this torrent +  |  -
100 Tears (Uncut) 2007 DVDRip XviD

Download FREE And Anonymously


Torrent info

Name:100 Tears (Uncut) 2007 DVDRip XviD

Total Size: 880.59 MB

Magnet: Magnet Link

Seeds: 0

Leechers: 0

Stream: Watch Full Movie @ Movie4u

Last Updated: 2014-06-28 20:13:45 (Update Now)

Torrent added: 2009-08-27 16:07:41



VPN For Torrents

Torrent Files List


100 Tears UNCUT 2007 DVDRip.avi (Size: 880.59 MB) (Files: 1)

 100 Tears UNCUT 2007 DVDRip.avi

880.59 MB
 

Announce URL:

Torrent description

After being accused of crimes he did not commit, a lonely circus performer exacts his revenge on those who unjustly condemned him. The act sparks something inside of him which he cannot stop and now, years later, his inner-demons have truly surfaced. Part urban legend, part tabloid sensationalism... he is now an unstoppable murderous juggernaut, fueled only by hate.




General
Complete name : 100 Tears UNCUT 2007 DVDRip.avi
Format : AVI
Format/Info : Audio Video Interleave
File size : 881 MiB
Duration : 1h 32mn
Overall bit rate : 1 336 Kbps

Video
Format : MPEG-4 Visual
Format profile : [email protected]
Format settings, BVOP : No
Format settings, QPel : No
Format settings, GMC : No warppoints
Format settings, Matrix : Default
Codec ID : XVID
Codec ID/Hint : XviD
Duration : 1h 32mn
Bit rate : 1 196 Kbps
Width : 720 pixels
Height : 480 pixels
Display aspect ratio : 1.500
Frame rate : 23.976 fps
Standard : NTSC
Resolution : 24 bits
Colorimetry : 4:2:0
Scan type : Progressive
Bits/(Pixel*Frame) : 0.144
Stream size : 788 MiB (89%)
Writing library : XviD 1.1.0 Beta2 (UTC 2005-04-04)

Audio
Format : MPEG Audio
Format version : Version 1
Format profile : Layer 3
Codec ID : 55
Codec ID/Hint : MP3
Duration : 1h 32mn
Bit rate mode : Constant
Bit rate : 128 Kbps
Channel(s) : 2 channels
Sampling rate : 48.0 KHz
Resolution : 16 bits
Stream size : 84.3 MiB (10%)
Alignment : Aligned on interleaves
Interleave, duration : 24 ms (0.58 video frame)
Writing library : LAME3.96.1



Please help your fellow pirates by seeding after download!

related torrents

Torrent name

health leech seeds Size
 


comments (0)

Main Menu

 

script data-cfasync="false" src="//d2ghscazvn398x.cloudfront.net/?cshgd=690275">