Horror

100 Feet German 2008 DUBBED DVDRiP XviD [mnvv2 info]

  • Download 5x Faster
  • Download torrent
  • Direct Download
  • Rate this torrent +  |  -
100 Feet German 2008 DUBBED DVDRiP XviD [mnvv2 info]

Anonymous and Direct Download 300GB+ free


Torrent info

Name:100 Feet German 2008 DUBBED DVDRiP XviD [mnvv2 info]

Total Size: 699.39 MB

Magnet: Magnet Link

Seeds: 0

Leechers: 0

Stream: Watch Online @ Movie4u

Last Updated: 2016-01-29 03:39:37 (Update Now)

Torrent added: 2009-08-27 16:07:11




Torrent Files List


100.feet.avi (Size: 699.39 MB) (Files: 3)

 100.feet.avi

699.38 MB

 952430.jpg

4.58 KB

 Info.txt

2.31 KB
 

tracker

leech seeds
 

Torrent description

100.Feet.German.2008.DUBBED.DVDRiP.XviD



DVD - Horror - USA 2008
FSK: Freigegeben ab 16 Jahren - 93 Min. - Anbieter: Universum Film - Leihstart: 18.02.2009

Einst tötete Marnie Watson in Notwehr ihren gewalttätigen Ehemann. Der Richter aber zeigte dafür nur geringes Verständnis und schickte sie ins Gefängnis, aus dem sie jetzt zur Bewährung ins Hausarrest entlassen wird unter der Auflage, sich nie mehr als hundert Fuß vom Detektor ihrer Fußfessel zu entfernen. Pech für Marnie, dass in der düsteren Villa, die einmal ihr gemeinsames Heim war, nun der Geist des rabiaten Gatten sein Unwesen treibt. Und der ist in totem Zustand miesester Laune denn je.

Format : AVI
Format/Info : Audio Video Interleave
Dateigre : 699 MiB
Duration : 1h 36min
Gesamte Bitrate : 1014 Kbps

Video
Format : MPEG-4 Visual
Format profile : Streaming [email protected]
Format settings, BVOP : Ja
Format settings, QPel : Nein
Format settings, GMC : No warpoints
Format settings, Matrix : Default
Codec ID : XVID
Codec ID/Hint : XviD
Duration : 1h 36min
Bitrate : 874 Kbps
Breite : 640 Pixel
Höhe : 272 Pixel
Bildseitenverhältnis : 2.35
Bildwiederholungsrate : 23.976 FPS
Auflösung : 8 bits
Colorimetry : 4:2:0
Scan type : Progressive
Bits/(Pixel*Frame) : 0.209
Stream size : 602 MiB
verwendete Encoder-Bibliothek : XviD 1.0.3 (UTC 2004-12-20)

Audio
Format : MPEG Audio
Format version : Version 1
Format profile : Layer 3
Codec ID : 55
Codec ID/Hint : MP3
Duration : 1h 36min
Bitraten-Modus : Variable
Bitrate : 128 Kbps
Kanäle : 2 Kanäle
Samplingrate : 48.0 KHz
Auflösung : 16 bits
Stream size : 88.1 MiB

related torrents

Torrent name

health leech seeds Size
 


comments (0)

Main Menu