Comedy

Big Stan 2007DvDrip DemonukNIKONRG

  • Download 5x Faster
  • Download torrent
  • Direct Download
  • Rate this torrent +  |  -
Big Stan 2007DvDrip DemonukNIKONRG

Anonymous and Direct Download 300GB+ free


Torrent info

Name:Big Stan 2007DvDrip DemonukNIKONRG

Total Size: 700.02 MB

Magnet: Magnet Link

Seeds: 0

Leechers: 0

Stream: Watch Online @ Movie4u

Last Updated: 2011-02-05 07:02:58 (Update Now)

Torrent added: 2008-08-05 21:34:05




Torrent Files List


Big Stan-[2007][DvDrip]-Demonuk[NIKONRG].avi (Size: 700.02 MB) (Files: 3)

 Big Stan-[2007][DvDrip]-Demonuk[NIKONRG].avi

700.02 MB

 Big Stan.info.txt

0.89 KB

 Torrent downloaded from Demonoid.com.txt

0.05 KB
 

Announce URL: http://inferno.demonoid.com:3391/announce

Torrent description

Big Stan-[2007][DvDrip]-Demonuk[NIKONRG]
__________________
MOVIE INFORMATION
__________________
TITLE.............:Big Stan
DIRECTOR..........:Rob Schneider
YEAR..............: 2007
RUNTIME...........:1h 44mn
GENRE.............: Comedy
COUNTRY...........:USA
SOURCE............:PAL DVD
SIZE..............:700mb
FORMAT............:Avi
IMDB..............: http://www.imdb.com/title/tt0490086/
USER RATING............: 6.6/10 (373 votes)
__________________
VIDEO INFORMATION
__________________
Format: MPEG-4 Visual
Format profile : Streaming [email protected]
Format settings, BVOP : Yes
Format settings, QPel : No
Format settings, GMC : No warppoints
Format settings, Matrix : Custom
Codec ID : XVID
Codec ID/Hint: XviD
Duration: 1h 44mn
Bit rate: 810 Kbps
Width: 608 pixels
Height: 336 pixels
Display aspect ratio: 16/9
Frame rate: 25.000 fps
Resolution: 8 bits
Colorimetry: 4:2:0
Scan type: Progressive
Bits/(Pixel*Frame) : 0.159
Stream size : 606 MiB (87%)
Writing library : XviD 1.2.0.dev47 (UTC 2006-11-01)

__________________
AUDIO INFORMATION
__________________
Format: MPEG Audio
Format version: Version 1
Format profile: Layer 3
Codec ID: 55
Codec ID/Hint: MP3
Duration: 1h 44mn
Bit rate mode: Variable
Bit rate : 112 Kbps
Minimum bit rate : 128 Kbps
Channel(s): 2 channels
Sampling rate: 48.0 KHz
Resolution: 16 bits
Stream size: 83.9 MiB (12%)
Writing library : LAME3.97
Encoding settings: ABR

__________________
MAIN CAST
__________________
Rob Schneider... Big Stan
Jackson Rathbone... Robbie the Hippie
M. Emmet Walsh
David Carradine
__________________
PLOT OUTLINE
__________________
Stan, a two-bit con man, is being sent to prison for fraud and the prospect terrifies him.
Seeking help from a mysterious martial arts guru known only as The Master,
Stan transforms himself into a kung fu expert -- ultimately bringing the warring prison gangs
together and establishing peace within its walls.
__________________
Info hash:BA06246E564B2832F70448C5DF7411721DF79EEE
Tracker announce: http://inferno.demonoid.com:3391/announce
Tracker announce: http://open.tracker.thepiratebay.org:80/announce
Tracker Scrape: http://inferno.demonoid.com:3391/scrape

__________________
Contents of download:

Big Stan-[2007][DvDrip]-Demonuk[NIKONRG].avi (700MB)
Big Stan.info.txt (913 Bytes)
Torrent downloaded from Demonoid.com.txt (47bytes)
___________________________________________________________________
> For Detailed Information on New Releases and Popular Request Click Here


^>>>>>>>>>>>>>>>>>>>>>>>>>>>>>>>>>>>>>>>>>>>>>>>>>>>>>>>>>>>>>>>>>>.^
^......................................................................................................@....................@......@.@@@.@...............^
^............@@...........@....@....@.......@...............................................@..................@......@................@...........^
^............@.@..........@...........@......@.......@@@@........ @..@.@.@......@...............@.......@..................@.........^
^............@..@.........@....@....@.....@....@..............@.....@@.........@......@............@........@...................@........^
^............@...@........@....@....@....@....@................@....@.............@.......@........@..........@...................@........^
^............@....@.......@....@....@...@....@..................@...@.............@.........@.....@...........@..................@.........^
^............@.....@......@....@....@@......@....................@..@.............@...........@@..............@@@@@@@............^
^............@......@.....@....@....@@......@....................@..@.............@.........@.....@...........@..............................^
^............@.......@....@....@....@...@....@...................@..@.............@........@.........@........@..............................^
^............@........@...@....@....@....@....@.................@...@.............@......@............@.......@..............................^
^............@.........@..@....@....@.....@....@...............@....@.............@....@................@.....@..............................^
^............@..........@.@....@....@......@....@.............@.....@.............@...@...................@...@..............................^
^............@...........@@....@....@.......@.....@.@.@..@......@.............@..@.....................@..@..............................^
^<<<<<<<<<<<<<<<<<<<<<<<<<<<<<<<<<<<<<<<<<<<<<<<<<<<<<<<<<<<<<<<<<<.^

related torrents

Torrent name

health leech seeds Size
 


comments (0)

Main Menu