Gore Flicks

Naked Blood (Nekeddo bur?ddo Megyaku) (UNCUT) [DVDRip] [KooKoo] [h33t]

  • Download 5x Faster
  • Download torrent
  • Direct Download
  • Rate this torrent +  |  -

Torrent info

Name:Naked Blood (Nekeddo bur?ddo Megyaku) (UNCUT) [DVDRip] [KooKoo] [h33t]

Total Size: 712.61 MB

Magnet: Magnet Link

Seeds: 1

Leechers: 2

Stream: Watch Online @ Movie4u

Last Updated: 2017-04-27 13:54:43 (Update Now)

Torrent added: 2009-08-27 15:58:17



VPN For Torrents

Torrent Files List


KooKoo.txt (Size: 712.61 MB) (Files: 4)

 KooKoo.txt

15.74 KB

 Naked Blood (Nekeddo burâddo Megyaku) (UNCUT) [DVDRip] [KooKoo] [h33t].avi

700.02 MB

 Sample

  Sample.avi

12.57 MB

 tracked_by_h33t_com.txt

0.02 KB
 

tracker

leech seeds
 

Torrent description

<pre class="nfo">Nekeddo bur?ddo: Megyaku (1995)
aka
Naked Blood
-----------------------------------------------------------------------------------------------------------------------------
Genre: Horror
-----------------------------------------------------------------------------------------------------------------------------
Synopsis:
A young aspiring amateur scientist named Eiji creates the ultimate painkiller--a drug that turns
pain into pleasure. His miraculous invention is called MySon, a tribute to his dead father.

His mother, a professional scientist, has been conducting experiments on three young
women. Without her approval, Eiji manages to add his MySon potion into his mother's test. He
then follows the three unsuspecting guinea pigs to see their reaction to his new creation.
Things start to get out of control when the women realize that the more pain they inflict on
themselves, the better it feels! Eiji is unable to contain the women's obsession with pleasure
and his own obsessiono with one of them.

This over the top film is packed with intense gore, blood, and violence. This is not for the faint
of heart!
-----------------------------------------------------------------------------------------------------------------------------
IMDB URL: http://www.imdb.com/title/tt0217679/
-----------------------------------------------------------------------------------------------------------------------------
DVD source Information:
# Format: Color, Dolby, DVD-Video, NTSC
# Language: Japanese
# Subtitles: English
# Region: Region 1 (U.S. and Canada only. Read more about DVD formats.)
# Aspect Ratio: 1.85:1
# Number of discs: 1
# Rating:
# Studio: Discotek Media
# DVD Release Date: October 31, 2006
# Run Time: 76 minutes
http://www.amazon.com/Splatter-Naked-Blood-Misa-Aika/dp/B000HXDWTQ/ref=sr_1_1?ie=UTF8&s=dvd&qid=1213656444&sr=1-1
-----------------------------------------------------------------------------------------------------------------------------
File Verified With MediaInfo:
Complete name : Naked Blood (Nekeddo bur?ddo Megyaku) (UNCUT) [DVDRip] [KooKoo] [h33t].avi
Format : AVI
Format/Info : Audio Video Interleave
File size : 700 MiB
Duration : 1h 16mn
Overal bit rate : 1271 Kbps
Movie name : Naked Blood (Nekeddo bur?ddo Megyaku) (UNCUT) [DVDRip] [KooKoo] [h33t]
Copyright : Ripped By KooKoo
-----------------------------------------------------------------------------------------------------------------------------
Video
Format : MPEG-4 Visual
Format settings, BVOP : No
Format settings, QPel : No
Format settings, GMC : No warppoints
Format settings, Matrix : Default
Codec ID : XVID
Codec ID/Hint : XviD
Duration : 1h 16mn
Bit rate : 1069 Kbps
Width : 576 pixels
Height : 352 pixels
Display aspect ratio : 1.636
Frame rate : 25.000 fps
Resolution : 8 bits
Colorimetry : 4:2:0
Scan type : Progressive
Bits/(Pixel*Frame) : 0.211
Stream size : 589 MiB
Writing library : XviD 1.0.1 (UTC 2004-06-05)
-----------------------------------------------------------------------------------------------------------------------------
Audio
Format : AC-3
Format/Info : Audio Coding 3
Codec ID : 2000
Duration : 1h 16mn
Bit rate mode : Constant
Bit rate : 192 Kbps
Channel(s) : 2 channels
Channel positions : L R
Sampling rate : 48.0 KHz
Stream size : 106 MiB
Language : japanese

Includes hardcoded English Subs
-----------------------------------------------------------------------------------------------------------------------------

hhhhhhh 333333333333333 333333333333333 tttt
h:::::h 3:::::::::::::::33 3:::::::::::::::33 ttt:::t
h:::::h 3::::::33333::::::33::::::33333::::::3 t:::::t
h:::::h 3333333 3:::::33333333 3:::::3 t:::::t Email me for any requests at:
h::::h hhhhh 3:::::3 3:::::3ttttttt:::::ttttttt [email protected]
h::::hh:::::hhh 3:::::3 3:::::3t:::::::::::::::::t
h::::::::::::::hh 33333333:::::3 33333333:::::3 t:::::::::::::::::t Or visit me at:
h:::::::hhh::::::h 3:::::::::::3 3:::::::::::3 tttttt:::::::tttttt h33t.com
h::::::h h::::::h 33333333:::::3 33333333:::::3 t:::::t
h:::::h h:::::h 3:::::3 3:::::3 t:::::t
h:::::h h:::::h 3:::::3 3:::::3 t:::::t
h:::::h h:::::h 3:::::3 3:::::3 t:::::t tttttt Enjoy and please keep
h:::::h h:::::h3333333 3:::::33333333 3:::::3 t::::::tttt:::::t This torrent alive by SEEDING
h:::::h h:::::h3::::::33333::::::33::::::33333::::::3 tt::::::::::::::t
h:::::h h:::::h3:::::::::::::::33 3:::::::::::::::33 tt:::::::::::tt
hhhhhhh hhhhhhh 333333333333333 333333333333333 ttttttttttt </pre>

related torrents

Torrent name

health leech seeds Size
 


comments (0)

Main Menu