Gore Flicks

Cutting Moments [1997] (AC 3 Audio)

  • Download 5x Faster
  • Download torrent
  • Direct Download
  • Rate this torrent +  |  -
Cutting Moments [1997] (AC 3 Audio)

Anonymous and Free Direct Download 300GB+


Torrent info

Name:Cutting Moments [1997] (AC 3 Audio)

Total Size: 703.44 MB

Magnet: Magnet Link

Seeds: 2

Leechers: 1

Stream: Watch Online @ Movie4u

Last Updated: 2015-09-19 21:23:30 (Update Now)

Torrent added: 2009-08-27 15:53:36



VPN For Torrents

Torrent Files List


Cutting Moments [1997] - akhiugo.avi (Size: 703.44 MB) (Files: 1)

 Cutting Moments [1997] - akhiugo.avi

703.44 MB
 

tracker

leech seeds
 

Torrent description

Synopsis : A collection of five shorts, each with a twist.

'Crack Dog' features a gun-toting pizza delivery man and his cocaine-addicted canine.

In 'Bowl of Oatmeal' a lonely man begins taking advice from his well-intentioned bowl of hot breakfast cereal.

In 'Don't Nag Me' a disturbed war veteran shuts up his pestering wife - for good. But being dead and buried does not make her any less of a nuisance.

In 'Principles of Karma' a bored punk becomes involved with the Youth Liberation Front and tags along for an ultra violent joy ride.

And finally, in 'Cutting Moments' a dysfunctional family and marriage is in a free fall towards oblivion.



Be warned, these are not for the fainthearted but for fans of gore, horror and those kind of shocking but sometimes tongue-in-cheek films. It has been listed in the top 10 sickest horror films of all time so that gives you an idea of what lies ahead. Send grandma out to the bingo if you plan on watching this in the living room cos she ain't likely to enjoy watching it with you. xD


NOTE: The IMDB link above relates only to the one episode Cutting Moments. This is the whole pack.



Complete name : Cutting Moments.avi
Format : AVI
Format/Info : Audio Video Interleave
File size : 703 MiB
Duration : 1h 15mn
Overall bit rate : 1 299 Kbps
Writing application : VirtualDubMod 1.5.4.1 (build 2178/release)
Writing library : VirtualDubMod build 2178/release

Video
Format : MPEG-4 Visual
Format profile : Streaming [email protected]
Format settings, BVOP : Yes
Format settings, QPel : No
Format settings, GMC : No warppoints
Format settings, Matrix : Custom
Codec ID : XVID
Codec ID/Hint : XviD
Duration : 1h 15mn
Bit rate : 1 068 Kbps
Width : 720 pixels
Height : 544 pixels
Display aspect ratio : 4/3
Frame rate : 25.000 fps
Resolution : 24 bits
Colorimetry : 4:2:0
Scan type : Progressive
Bits/(Pixel*Frame) : 0.109
Stream size : 578 MiB (82%)
Writing library : XviD 1.2.1 (UTC 2008-12-04)

Audio
Format : AC-3
Format/Info : Audio Coding 3
Codec ID : 2000
Duration : 1h 15mn
Bit rate mode : Constant
Bit rate : 224 Kbps
Channel(s) : 2 channels
Channel positions : L R
Sampling rate : 48.0 KHz
Video delay : 10ms
Stream size : 121 MiB (17%)
Alignment : Split accross interleaves
Interleave, duration : 96 ms (2.40 video frames)
Interleave, preload duration : 96 ms



Please help your fellow pirates by seeding after download!

related torrents

Torrent name

health leech seeds Size
 


comments (0)

Main Menu