Gore Flicks

Cannibal ferox (1981) UNCUT (Dual ENG DE) (DVDRip) KooKoo [1337x]

  • Download 5x Faster
  • Download torrent
  • Direct Download
  • Rate this torrent +  |  -

Torrent info

Name:Cannibal ferox (1981) UNCUT (Dual ENG DE) (DVDRip) KooKoo [1337x]

Total Size: 0.99 GB

Magnet: Magnet Link

Seeds: 1

Leechers: 0

Stream: Watch Online @ Movie4u

Last Updated: 2015-09-19 21:22:53 (Update Now)

Torrent added: 2009-08-27 15:53:13



VPN For Torrents

Torrent Files List


Subtitles (Size: 0.99 GB) (Files: 5)

 Subtitles

  Cannibal ferox (1981) UNCUT (Dual ENG-DE) (DVDRip) KooKoo [1337x].idx

459.40 KB

  Cannibal ferox (1981) UNCUT (Dual ENG-DE) (DVDRip) KooKoo [1337x].sub

36.93 MB

 1337x.org.txt

0.02 KB

 Cannibal ferox (1981) UNCUT (Dual ENG-DE) (DVDRip) KooKoo [1337x].avi

977.15 MB

 KooKoo.nfo

6.87 KB
 

tracker

leech seeds
 

Torrent description


@@@ @@@ @@@@@@ @@@@@@ @@@ @@@ @@@@@@ @@@@@@
@@@ @@@ @@@@@@@@ @@@@@@@@ @@@ @@@ @@@@@@@@ @@@@@@@@
@@! [email protected]@ @@! @@@ @@! @@@ @@! [email protected]@ @@! @@@ @@! @@@
[email protected]! @!! [email protected]! @[email protected] [email protected]! @[email protected] [email protected]! @!! [email protected]! @[email protected] [email protected]! @[email protected]
@[email protected]@[email protected]! @[email protected] [email protected]! @[email protected] [email protected]! @[email protected]@[email protected]! @[email protected] [email protected]! @[email protected] [email protected]!
[email protected]!!! [email protected]! !!! [email protected]! !!! [email protected]!!! [email protected]! !!! [email protected]! !!!
!!: :!! !!: !!! !!: !!! !!: :!! !!: !!! !!: !!!
:!: !:! :!: !:! :!: !:! :!: !:! :!: !:! :!: !:!
:!: ::: ::::: :: ::::: :: :!: ::: ::::: :: ::::: ::
:!: ::: : : : : : : :!: ::: : : : : : :
:: ::





___ _ ___ _
/ __|___ _ _ ___ _ _ __ _| | | __(_) |_ __
| (_ / -_) ' / -_) '_/ _` | | | _|| | | '
\___\___|_||_\___|_| \__,_|_| |_| |_|_|_|_|_|

___ __ _ _
|_ _|_ _ / _|___ _ _ _ __ __ _| |_(_)___ _ _
| || ' | _/ _ '_| ' / _` | _| / _ '
|___|_||_|_| \___/_| |_|_|_\__,_|\__|_\___/_||_|

Movie Name: Cannibal ferox
Genre: Horror
Release Date: 1981
Country: Italy
Certification: NR
IMDB Link: http://www.imdb.com/title/tt0082700/



___ _
/ __|_ _ _ _ ___ _ __ __(_)___
\__ || | ' / _ '_ (_-< (_-<
|___/\_, |_||_\___/ .__/__/_/__/
|__/ |_|


Anthropologists take a trip to the jungles of Colombia to study
native cannibals. Instead, they find a band of drug dealers,
using the natives to harvest the cocoa leaf. After awhile, the
natives are tired of being tortured slaves, and turn on their
masters, as well as the anthropologists, thus filling the screen with
gruesome splatter!







___ ___ __ _ _
| _ (_)_ __ |_ _|_ _ / _|___ _ _ _ __ __ _| |_(_)___ _ _
| / | '_ | || ' | _/ _ '_| ' / _` | _| / _ '
|_|_\_| .__/ |___|_||_|_| \___/_| |_|_|_\__,_|\__|_\___/_||_|
|_|

Format : AVI
Format/Info : Audio Video Interleave
File size : 977 MiB
Duration : 1h 28mn
Overall bit rate : 1535 Kbps
Writing application : VirtualDubMod 1.5.10.2 (build 2540/release)
Writing library : VirtualDubMod build 2540/release
Copyright : Ripped By KooKoo

Video
Format : MPEG-4 Visual
Format profile : Streaming [email protected]
Format settings, BVOP : Yes
Format settings, QPel : No
Format settings, GMC : No warppoints
Format settings, Matrix : Default
Muxing mode : Packet Bitstream
Codec ID : XVID
Codec ID/Hint : XviD
Duration : 1h 28mn
Bit rate : 1265 Kbps
Width : 640 pixels
Height : 368 pixels
Display aspect ratio : 16/9
Frame rate : 25.000 fps
Resolution : 8 bits
Colorimetry : 4:2:0
Scan type : Progressive
Bits/(Pixel*Frame) : 0.215
Stream size : 805 MiB (82%)
Writing library : XviD 1.2.0.dev47 (UTC 2006-11-01)

Audio #1
Format : MPEG Audio
Format version : Version 1
Format profile : Layer 3
Codec ID : 55
Codec ID/Hint : MP3
Duration : 1h 28mn
Bit rate mode : Constant
Bit rate : 128 Kbps
Minimum bit rate : 128 Kbps
Channel(s) : 2 channels
Sampling rate : 48.0 KHz
Resolution : 16 bits
Stream size : 81.5 MiB (8%)
Alignment : Aligned on interleaves
Interleave, duration : 40 ms (1.00 video frame)
Interleave, preload duration : 504 ms
Writing library : LAME3.97
Encoding settings : CBR

Audio #2
Format : MPEG Audio
Format version : Version 1
Format profile : Layer 3
Codec ID : 55
Codec ID/Hint : MP3
Duration : 1h 28mn
Bit rate mode : Constant
Bit rate : 128 Kbps
Minimum bit rate : 128 Kbps
Channel(s) : 2 channels
Sampling rate : 48.0 KHz
Resolution : 16 bits
Stream size : 81.5 MiB (8%)
Alignment : Aligned on interleaves
Interleave, duration : 40 ms (1.00 video frame)
Interleave, preload duration : 504 ms
Writing library : LAME3.97
Encoding settings : CBR


_ _ _ _ _ _ _ _ _ _
/_ __| |__| (_) |_(_)___ _ _ __ _| | | | |___| |_ ___ ___
/ _ / _` / _` | | _| / _ ' / _` | | | .` / _ _/ -_|_-<
/_/ \_\__,_\__,_|_|\__|_\___/_||_\__,_|_| |_|\_\___/\__\___/__/

This was ripped from the CANNIBAL FEROX (ULTRABIT LIMITED TIN EDITION)
Out of Print PAL DVD. This rip includes 2 language tracks: English and
Deutsch. It also includes subtitles in idx/sub format. Languages included
for subtitles are:English, Deutsch,Dutch, Finnish & Swedish


R.I.P Date: 9/28/08

Cannibal ferox (1981) UNCUT (Dual ENG-DE) (DVDRip) KooKoo [1337x]


_ _________________ __
/ |___ /___ /___ / / ___ _ __ __ _ 1337x.org
| | |_ |_ / / / / _ | '__/ _` |
| |___) |__) |/ / / | (_) | | | (_| |
|_|____/____//_/ /_/\_(_)___/|_| \__, |
|___/
Don't forget to visit! Come hang out with me in the chat!

related torrents

Torrent name

health leech seeds Size

Cannibal Ferox (1981) [

0 0 699.05 MB 0
 


comments (0)

Main Menu