Gore Flicks

Brain Damage (UNCUT) [DVDRip][KooKoo][h33t]

  • Download 5x Faster
  • Download torrent
  • Direct Download
  • Rate this torrent +  |  -
Brain Damage (UNCUT) [DVDRip][KooKoo][h33t]

Free and Direct Download with Usenet 300GB+ free


Torrent info

Name:Brain Damage (UNCUT) [DVDRip][KooKoo][h33t]

Total Size: 803.47 MB

Magnet: Magnet Link

Seeds: 5

Leechers: 0

Stream: Watch Online @ Movie4u

Last Updated: 2016-02-20 22:48:37 (Update Now)

Torrent added: 2009-08-27 15:53:06




Torrent Files List


Brain Damage (UNCUT) [DVDRip][KooKoo][h33t].avi (Size: 803.47 MB) (Files: 3)

 Brain Damage (UNCUT) [DVDRip][KooKoo][h33t].avi

803.45 MB

 KooKoo.txt

16.17 KB

 tracked_by_h33t_com.txt

0.02 KB
 

tracker

leech seeds
 

Torrent description

-------------------------------------------------------------------------------------------------------------
KKKKKKKKK KKKKKKK KKKKKKKKK KKKKKKK
K:::::::K K:::::K K:::::::K K:::::K
K:::::::K K:::::K K:::::::K K:::::K
K:::::::K K::::::K K:::::::K K::::::K
KK::::::K K:::::KKK ooooooooooo ooooooooooo KK::::::K K:::::KKK ooooooooooo ooooooooooo
K:::::K K:::::K oo:::::::::::oo oo:::::::::::oo K:::::K K:::::K oo:::::::::::oo oo:::::::::::oo
K::::::K:::::K o:::::::::::::::oo:::::::::::::::o K::::::K:::::K o:::::::::::::::oo:::::::::::::::o
K:::::::::::K o:::::ooooo:::::oo:::::ooooo:::::o K:::::::::::K o:::::ooooo:::::oo:::::ooooo:::::o
K:::::::::::K o::::o o::::oo::::o o::::o K:::::::::::K o::::o o::::oo::::o o::::o
K::::::K:::::K o::::o o::::oo::::o o::::o K::::::K:::::K o::::o o::::oo::::o o::::o
K:::::K K:::::K o::::o o::::oo::::o o::::o K:::::K K:::::K o::::o o::::oo::::o o::::o
KK::::::K K:::::KKKo::::o o::::oo::::o o::::oKK::::::K K:::::KKKo::::o o::::oo::::o o::::o
K:::::::K K::::::Ko:::::ooooo:::::oo:::::ooooo:::::oK:::::::K K::::::Ko:::::ooooo:::::oo:::::ooooo:::::o
K:::::::K K:::::Ko:::::::::::::::oo:::::::::::::::oK:::::::K K:::::Ko:::::::::::::::oo:::::::::::::::o
K:::::::K K:::::K oo:::::::::::oo oo:::::::::::oo K:::::::K K:::::K oo:::::::::::oo oo:::::::::::oo
KKKKKKKKK KKKKKKK ooooooooooo ooooooooooo KKKKKKKKK KKKKKKK ooooooooooo ooooooooooo
--------------------------------------------------------------------------------------------------------------

*****
Title:
*****

"Brain Damage (1988)"

_____________________________________________________________________________________________________________
*****
Genre: Comedy | Horror
*****
_____________________________________________________________________________________________________________

_____________________________________________________________________________________________________________
*********
Synopsis:
*********

From the director of Basket Case

Aylmer's back and sharper than ever in this newly remastered DVD Limited Edition.
A worm-like parasite named Aylmer latches into Brian's (Rick Herbst) neck and offers to inject his brain
with a hallucinogenic fluid, giving him pleasurable psychedelic experiences. But the catch is, to keep the
"high", Brian has to feed Aylmer his favorite food...human brains! Directed by Frank Henenlotter (Basket
Case, Frankenhooker), this amazing cult film favorite will have you screaming with laughter as you reach
for your barf bag!

Now available on this DVD in a pristine new 2003 16:9 Anamorphic Widescreen transfer with a newly
remixed Dolby Digital 5.1 track, Brain Damage will jump off your screen and rock your speakers like
never before. This version of Brain Damage contains all the gore sequences deleted from the U.S.
theatrical release, including the infamous "brain pulling" sequence!
_____________________________________________________________________________________________________________
********
IMDB URL: http://www.imdb.com/title/tt0094793/
********
_____________________________________________________________________________________________________________
***********************
source Information:
***********************

http://www.dvdempire.com/Exec/v4_item.asp?userid=99366349663972&item_id=550363&searchID=344368

Studio: Synapse Films
Production Year: 1988
Release Date: 10/30/2007
Length: 86 mins
Rating: NR
Chapters: 22
Includes: Audio Commentary
Packaging: Keep Case
Number of Discs: 1
Disc: SS-DL
Item Code: SFD0027
UPC Code: 654930302798
_____________________________________________________________________________________________________________
*****************************
File Verified With MediaInfo:
*****************************

-General
Complete name : Brain Damage (UNCUT) [DVDRip][KooKoo][h33t].avi
Format : AVI
Format/Info : Audio Video Interleave
File size : 803 MiB
Duration : 1h 25mn
Overal bit rate : 1311 Kbps
Movie name : Brain Damage
Director : Ripped By KooKoo
Writing application : Lavf51.19.0
Product : DVD_VOLUME

-Video
Format : MPEG-4 Visual
Format profile : [email protected]
Format settings, BVOP : No
Format settings, QPel : No
Format settings, GMC : No warppoints
Format settings, Matrix : Default
Codec ID : XVID
Codec ID/Hint : XviD
Duration : 1h 25mn
Bit rate : 1170 Kbps
Width : 624 pixels
Height : 352 pixels
Display aspect ratio : 16/9
Frame rate : 23.976 fps
Resolution : 8 bits
Colorimetry : 4:2:0
Scan type : Progressive
Bits/(Pixel*Frame) : 0.222
Stream size : 717 MiB
Writing library : XviD 1.1.2 (UTC 2006-11-01)

-Audio
Format : MPEG Audio
Format version : Version 1
Format profile : Layer 3
Codec ID : 55
Codec ID/Hint : MP3
Duration : 1h 25mn
Bit rate mode : Constant
Bit rate : 128 Kbps
Channel(s) : 2 channels
Sampling rate : 48.0 KHz
Resolution : 16 bits
Stream size : 78.5 MiB
Language : english

_____________________________________________________________________________________________________________

hhhhhhh 333333333333333 333333333333333 tttt
h:::::h 3:::::::::::::::33 3:::::::::::::::33 ttt:::t
h:::::h 3::::::33333::::::33::::::33333::::::3 t:::::t _____________________________
h:::::h 3333333 3:::::33333333 3:::::3 t:::::t | Email me for any requests |
h::::h hhhhh 3:::::3 3:::::3ttttttt:::::ttttttt | [email protected] |
h::::hh:::::hhh 3:::::3 3:::::3t:::::::::::::::::t |_____________________________|
h::::::::::::::hh 33333333:::::3 33333333:::::3 t:::::::::::::::::t
h:::::::hhh::::::h 3:::::::::::3 3:::::::::::3 tttttt:::::::tttttt
h::::::h h::::::h 33333333:::::3 33333333:::::3 t:::::t
h:::::h h:::::h 3:::::3 3:::::3 t:::::t
h:::::h h:::::h 3:::::3 3:::::3 t:::::t _____________________________
h:::::h h:::::h 3:::::3 3:::::3 t:::::t tttttt |Enjoy and please keep |
h:::::h h:::::h3333333 3:::::33333333 3:::::3 t::::::tttt:::::t |This torrent alive by SEEDING|
h:::::h h:::::h3::::::33333::::::33::::::33333::::::3 tt::::::::::::::t |_____________________________|
h:::::h h:::::h3:::::::::::::::33 3:::::::::::::::33 tt:::::::::::tt
hhhhhhh hhhhhhh 333333333333333 333333333333333 ttttttttttt
_____________________________________________________________________________________________________________

related torrents

Torrent name

health leech seeds Size
 

comments (0)

Main Menu