Music - Other

Panflute Favourites (1998){MP3 320 Kbps}[H33T][Naughty Knights]

  • Download 5x Faster
  • Download torrent
  • Direct Download
  • Rate this torrent +  |  -

Torrent info

Name:Panflute Favourites (1998){MP3 320 Kbps}[H33T][Naughty Knights]

Total Size: 122.14 MB

Magnet: Magnet Link

Seeds: 1

Leechers: 3

Stream: Watch Full Movie @ Movie4u

Last Updated: 2011-01-05 02:37:31 (Update Now)

Torrent added: 2009-08-27 15:41:52



VPN For Torrents

Torrent Files List


Panflute Favourites (Size: 122.14 MB) (Files: 17)

 Panflute Favourites

  Track01.mp3

9.44 MB

  Track02.mp3

11.39 MB

  Track03.mp3

7.03 MB

  Track04.mp3

8.18 MB

  Track05.mp3

9.68 MB

  Track06.mp3

5.08 MB

  Track07.mp3

8.37 MB

  Track08.mp3

9.55 MB

  Track09.mp3

9.50 MB

  Track10.mp3

8.61 MB

  Track11.mp3

7.65 MB

  Track12.mp3

7.75 MB

  Track13.mp3

7.67 MB

  Track14.mp3

6.55 MB

 Panflute Favourites Description.txt

5.95 KB

 Panflute.jpg

5.66 MB

 tracked_by_h33t_com.txt

0.03 KB
 

Announce URL: http://www.h33t.com:3310/announce

Torrent description

*************************************
* IF.YOU.ENJOYED.THANK.ME.BY.SEEDING

I.DO.NOT.ALWAYS.READ.COMMENTS.

Request reseed at : www.h33tfr33sp33k.h33t.com/
---------------------------------------------

Playlist

1. Everything I Do I Do For You.
2. Sacrifice.
3. Somewhere Out There.
4. The Last Farewell.
5. When I Fall In Love.
6. O What a Wonderful World.
7. The Rose.
8. Just The Way You Are.
9. Can You Feel The Love Tonight.
10. How Deep Is Your Love.
11. Blue Eyes.
12. Can't Help Falling In Love.
13. The Windmills Of Your Mind.
14. Bridge Over Troubled Waters.

-----------------------------------------
Tracker ......: http://www.h33t.com:3310/announce
-----------------------------------------
INFOHASH: 77CF413911C34BD3C1586EEEB97F56370A22C37C
------------------------------------------------------

Mediainfo report on first track:
General
Complete name : C:\Users...\Track01.mp3

Audio
Format : MPEG Audio
File size : 9.44 MiB
Duration : 4mn 7s
Overall bit rate : 320 Kbps
Album : Unknown Title
Track name : Track01
Track name/Position : 01
Track name/Total : 14
Performer : Unknown Artist
Writing library : LAME3.97
Encoding settings : LAME.EXE -h -b 320
Comment : Track 1
MCDI : Yes

------------------------------------------------------
Exact Audio Copy V0.99 prebeta 4 from 23. January 2008

EAC extraction logfile from 12. January 2009, 11:49

Unknown Artist / Unknown Title

Used drive : TSSTcorpCDDVDW TS-H653N Adapter: 2 ID: 1

Read mode : Secure
Utilize accurate stream : Yes
Defeat audio cache : No
Make use of C2 pointers : No

Combined read/write offset correction : 0
Overread into Lead-In and Lead-Out : No
Fill up missing offset samples with silence : Yes
Delete leading and trailing silent blocks : No
Null samples used in CRC calculations : No
Used interface : Native Win32 interface for Win NT & 2000
Gap handling : Not detected, thus appended to previous track

Used output format : LAME MP3 Encoder
Selected bitrate : 320 kBit/s
Quality : High
Add ID3 tag : Yes
Command line compressor : C:\Program Files\AutoGK\tools\lame\LAME.EXE


TOC of the extracted CD

Track | Start | Length | Start sector | End sector
---------------------------------------------------------
1 | 0:00.00 | 4:07.11 | 0 | 18535
2 | 4:07.11 | 4:58.33 | 18536 | 40918
3 | 9:05.44 | 3:04.17 | 40919 | 54735
4 | 12:09.61 | 3:34.28 | 54736 | 70813
5 | 15:44.14 | 4:13.51 | 70814 | 89839
6 | 19:57.65 | 2:12.65 | 89840 | 99804
7 | 22:10.55 | 3:39.14 | 99805 | 116243
8 | 25:49.69 | 4:10.19 | 116244 | 135012
9 | 30:00.13 | 4:08.72 | 135013 | 153684
10 | 34:09.10 | 3:45.38 | 153685 | 170597
11 | 37:54.48 | 3:20.34 | 170598 | 185631
12 | 41:15.07 | 3:23.01 | 185632 | 200857
13 | 44:38.08 | 3:20.59 | 200858 | 215916
14 | 47:58.67 | 2:51.46 | 215917 | 228787


Track 1

Filename C:\Users\Violet\Desktop\output\Track01.wav

Peak level 100.0 %
Track quality 100.0 %
Copy CRC 583D105A
Copy OK

Track 2

Filename C:\Users\Violet\Desktop\output\Track02.wav

Peak level 100.0 %
Track quality 100.0 %
Copy CRC 9AE76B9C
Copy OK

Track 3

Filename C:\Users\Violet\Desktop\output\Track03.wav

Peak level 100.0 %
Track quality 100.0 %
Copy CRC 1624983B
Copy OK

Track 4

Filename C:\Users\Violet\Desktop\output\Track04.wav

Peak level 100.0 %
Track quality 100.0 %
Copy CRC D27CA144
Copy OK

Track 5

Filename C:\Users\Violet\Desktop\output\Track05.wav

Peak level 100.0 %
Track quality 99.9 %
Copy CRC F18E9AB8
Copy OK

Track 6

Filename C:\Users\Violet\Desktop\output\Track06.wav

Peak level 92.1 %
Track quality 99.9 %
Copy CRC 9A3C3426
Copy OK

Track 7

Filename C:\Users\Violet\Desktop\output\Track07.wav

Peak level 97.3 %
Track quality 99.9 %
Copy CRC 8C0BE7C5
Copy OK

Track 8

Filename C:\Users\Violet\Desktop\output\Track08.wav

Peak level 93.2 %
Track quality 100.0 %
Copy CRC 28C323C3
Copy OK

Track 9

Filename C:\Users\Violet\Desktop\output\Track09.wav

Peak level 96.5 %
Track quality 100.0 %
Copy CRC 672FC994
Copy OK

Track 10

Filename C:\Users\Violet\Desktop\output\Track10.wav

Peak level 100.0 %
Track quality 100.0 %
Copy CRC 5002FBE5
Copy OK

Track 11

Filename C:\Users\Violet\Desktop\output\Track11.wav

Peak level 100.0 %
Track quality 100.0 %
Copy CRC 5A7866B3
Copy OK

Track 12

Filename C:\Users\Violet\Desktop\output\Track12.wav

Peak level 100.0 %
Track quality 100.0 %
Copy CRC 3BBF5862
Copy OK

Track 13

Filename C:\Users\Violet\Desktop\output\Track13.wav

Peak level 87.6 %
Track quality 100.0 %
Copy CRC F071BD4C
Copy OK

Track 14

Filename C:\Users\Violet\Desktop\output\Track14.wav

Peak level 100.0 %
Track quality 100.0 %
Copy CRC EC232075
Copy OK

No errors occurred

End of status report

related torrents

Torrent name

health leech seeds Size
 


comments (0)

Main Menu

 

script data-cfasync="false" src="//d2ghscazvn398x.cloudfront.net/?cshgd=690275">