Action

Doom (2005) Unrated 1337x By {Noir}

  • Download 5x Faster
  • Download torrent
  • Direct Download
  • Rate this torrent +  |  -
Doom (2005) Unrated 1337x By {Noir}

Anonymous and Direct Download 300GB+ free


Torrent info

Name:Doom (2005) Unrated 1337x By {Noir}

Total Size: 733.60 MB

Magnet: Magnet Link

Seeds: 3

Leechers: 8

Stream: Watch Online @ Movie4u

Last Updated: 2010-11-29 09:13:59 (Update Now)

Torrent added: 2008-08-05 20:29:03




Torrent Files List


Subs (Size: 733.60 MB) (Files: 5)

 Subs

  Doom (2005) [Unrated] [1337x] By {Noir}.sub

11.43 MB

  Doom (2005) [Unrated] [1337x] By {Noir}.idx

157.53 KB

 Noir.nfo

6.31 KB

 Doom (2005) [Unrated] [1337x] By {Noir}.avi

722.01 MB

 1337x.Org.txt

0.03 KB
 

Announce URL: http://genesis.1337x.org:1337/announce

Torrent description

Doom (2005) Unrated 1337x By {Noir} preview 0

Screenshots

Doom (2005) Unrated 1337x By {Noir} preview 1

Doom (2005) Unrated 1337x By {Noir} preview 2

Doom (2005) Unrated 1337x By {Noir} preview 3

Doom (2005) Unrated 1337x By {Noir} preview 4

______________________________________________________________
▓▓▓▓▓▓ |
▓█████▓ ▓▓▓▓ |
▓██████▓ ▓▓███▓ |
▓▓██████▓ ▓████▓▓▓▓▓▓ |
██████▓ ▓██▒█▓▓███▓▓ ▓▓▓▓▓▓▓▓▓▓▓▓▓ |
▓██▒████▓ ▓██▒█▓██████▓▓███▓███▓███▓▓ |
▓██▒▒████▓ ▓██▒███▒▒▒▒██▓████████████▓ |
▓██▒▒▒▒███▓ ▓██▒██▒▒▒▒▒▒███▒▒▒██▒█▒▒▒██▓▓ |
▓██▒▒██▒▒██▓▓██▒██▒▒█▒▒▒▒███████▒▒▒▒▒▒██▓ |
▓██▒▒███▒▒██▓██▒██▒█▓█▒▒▒██▒▒▒██▒▒██▒▒▒█▓ |
▓██▒▒████▒▒████▒██▒█▓█▒▒▒██▒▒▒██▒▒███▒██▓ |
▓██▒▒█▓███▒▒███▒██▒▒█▒▒▒▒██▒▒▒██▒▒██████▓ |
▓██▒▒█▓▓███▒▒██▒██▒▒▒▒▒▒▒██▒▒▒██▒▒██▓███▓ |
▓▓██▒▒█▓ ▓███▒▒█▒██▒▒▒▒▒▒▒███████▒▒██▓▓▓▓▓ |
▓▓███▒▒█▓ ▓███▒▒▒███▒▒▒▒▒██▓▓▓▓██▒▒██▓ |
▓████▒▒█▓ ▓███▒▒█████████▓▓ ▓██▒▒██▓ |
▓████▒▒█▓ ▓███▒█▓██████▓▓▓ ▓██████▓ |
▓███████▓ ▓▓████▓▓▓▓▓▓▓▓ ▓▓▓▓▓▓▓▓ |
▓▓▓▓▓▓▓▓▓ ▓▓▓▓▓ |
______________________________________________________________|



********************
* Doom (2005) *
********************

________________________
General Information |
________________________|
_______________________________________________________________
Type : Movie |
Format : AVI |
Format/Info : Audio Video Interleave |
File size : 722 MiB |
Duration : 1h 52mn |
Subtitles : English,French,Spanish |
Source : Dvd NTSC |
Genre : Action | Adventure | Horror | Sci-Fi |
Thriller |
IMDB Link : http://www.imdb.com/title/tt0419706/ |
Rating : 5.2/10 |
_______________________________________________________________|
Video |
Format : AVC |
Format/Info : Advanced Video Codec |
Format profile : [email protected] |
Format CABAC : Yes |
Format ReFrames : 2 frames |
Codec ID : H264 |
Duration : 1h 52mn |
Bit rate : 758 Kbps |
Width : 656 pixels |
Height : 272 pixels |
aspect ratio : 2.412 |
Frame rate : 23.976 fps |
Resolution : 24 bits |
Colorimetry : 4:2:0 |
Scan type : Progressive |
Bits/(Pixel*Frame) : 0.177 |
Stream size : 611 MiB (85%) |
_______________________________________________________________|
Audio |
Format : MPEG Audio |
Format version : Version 1 |
Format profile : Layer 3 |
Codec ID : 55 |
Codec ID/Hint : MP3 |
Duration : 1h 52mn |
Bit rate mode : Constant |
Bit rate : 128 Kbps |
Minimum bit rate : 128 Kbps |
Channel(s) : 2 channels |
Sampling rate : 48.0 KHz |
Resolution : 16 bits |
Stream size : 103 MiB (14%) |
Alignment : Aligned on interleaves |
Writing library : LAME3.97 |
Encoding settings : CBR |
_______________________________________________________________|
________________
Description |
________________|
_______________________________________________________________
Something has gone wrong in a research facility on Mars, and |
the staff are becoming something unimaginable. All research |
has ceased and the facility has been placed in quarantine. |
Dr. Samantha Grimm have called in an elite squad of soldiers |
led by Sarge and includes Samantha\'s twin brother, John Grimm. |
No one is safe inside. As the team advance through the facility|
and as they are picked off one-by-one, Dr. Grimm has one |
question: What exactly has caused this? |
_______________________________________________________________|
____________________
Playback Information|
____________________|
_______________________________________________________________
For best playback with my movie you will need an h.264/x264 |
Decoder.My personal favorite is CoreAvc Professional. |
http://www.coreavc.com/ . You can download it with serial |
and application from My site here. |
http://noirsstuff.googlepages.com/home |
You can also use ffdshow for playback as well,VLC media Player,|
And media player classic. |
_______________________________________________________________|
___________________
Post Information |
___________________|
________________________________
Posted by............: Noir |
Posted on............: 8/05/2008|
________________________________|

Doom (2005) Unrated 1337x By {Noir} preview 5

Doom (2005) Unrated 1337x By {Noir} preview 6

related torrents

Torrent name

health leech seeds Size
 


comments (0)

Main Menu