Other

Chungking Express 1994 DVDRip x264 AC3 KARiNA + OST

  • Download 5x Faster
  • Download torrent
  • Direct Download
  • Rate this torrent +  |  -
Chungking Express 1994 DVDRip x264 AC3 KARiNA + OST

Anonymous and Free Direct Download 300GB+


Torrent info

Name:Chungking Express 1994 DVDRip x264 AC3 KARiNA + OST

Total Size: 1.98 GB

Magnet: Magnet Link

Seeds: 0

Leechers: 0

Stream: Watch Online @ Movie4u

Last Updated: 0000-00-00 00:00:00 (Update Now)

Torrent added: 2009-08-27 15:30:06



VPN For Torrents

Torrent Files List


Chungking Express OST (Size: 1.98 GB) (Files: 18)

 Chungking Express OST

  Chungking Express 05 - Rain,Tear And Sweat.mp3

8.55 MB

  Chungking Express 06 - Night Snack.mp3

7.74 MB

  Chungking Express 01 - Dream-Person (Cantonese).mp3

7.63 MB

  Chungking Express 11 - Weird Thinking.mp3

6.98 MB

  Chungking Express 03 - Seusuous Forest.mp3

5.98 MB

  Chungking Express 02 - Chasing The Metaphysical Express.mp3

4.99 MB

  Chungking Express 15 - Dream-Person (Mandarin).mp3

4.10 MB

  Chungking Express 04 - Fornication In Space.mp3

3.93 MB

  Chungking Express 14 - Only You.mp3

3.86 MB

  Chungking Express 08 - Rock Like A Dog.mp3

3.77 MB

  Chungking Express 07 - Entering The Hardboiled Wonderland.mp3

3.74 MB

  Chungking Express 12 - Bluebeard.mp3

3.54 MB

  Chungking Express 13 - Things in Life.mp3

2.95 MB

  Chungking Express 10 - Sweat Farewell.mp3

2.63 MB

  Chungking Express 09 - Heartbreak Interlude.mp3

2.12 MB

 Chungking.Express.1994.DVDRip.x264.AC3-KARiNA.mkv

1.90 GB

 Chungking Express.jpg

5.74 MB

 ce-KARiNA.nfo

6.47 KB
 

Announce URL:

Torrent description

88 a8P db 88888888ba 88 888b 88 db
88 ,88' d88b 88 "8b "" 8888b 88 d88b
88 ,88" d8'`8b 88 ,8P 88 `8b 88 d8'`8b
88,d88' d8' `8b 88aaaaaa8P' 88 88 `8b 88 d8' `8b
8888"88, d8YaaaaY8b 88""""88' 88 88 `8b 88 d8YaaaaY8b
88P Y8b d8""""""""8b 88 `8b 88 88 `8b 88 d8""""""""8b
88 "88, d8' `8b 88 `8b 88 88 `8888 d8' `8b
88 Y8b d8' `8b 88 `8b 88 88 `888 d8' `8b
-------------------------------------------------------------------------------
-------------------------------------
[ Chungking.Express.1994.DVDRip.x264.AC3-KARiNA ]
-------------------------------------

==================================[ Synopsis ]==================================

Chungking Express | Hong Kong | 1994 | Directed by Wong Kar-wai

A Hong Kong fast food restaurant acts as the link between two unusual stories of
police officers in love in this eccentric, stylish comedy-drama. Director Wong
Kar-Wai plays freely with traditional narrative structure, dividing his film into
two loosely connected segments. The first centers on a depressed cop struggling to
come to terms with a recent break-up. His sad isolation is transformed when he
encounters a beautiful, mysterious femme fatale, whose involvement with the criminal
underworld proves troublesome for both. The second story explores the odd relation-
ship between a female restaurant worker and another recently jilted police officer.
The strange woman decides to regularly clean and redecorate the man's apartment in
his absence, allowing the two to form a close intimacy without meeting face to face.
Both stories present a beautifully atmospheric look at modern urban life and romance,
with its combination of isolation and casual, unexpected meetings. Chungking Express
came to the attention of American audiences thanks to the efforts of director Quentin
Tarantino, whose own brand of fractured storytelling and urban cool owes a debt to
Wong Kar-Wai.

[ IMdB: http://www.imdb.com/title/tt0109424 | Rating: 8.0 / 10 (14,346 votes) ]

=================================[ General ]===================================

Complete name : Chungking.Express.1994.DVDRip.x264.AC3-KARiNA.mkv
Format : Matroska
File size : 1.90 GiB
Duration : 1h 42mn
Overall bit rate : 2 642 Kbps
Source : Criterion NTSC DVD9

=================================[ Video ]=====================================

Format : AVC
Codec ID : V_MPEG4/ISO/AVC
Bit rate : 1 949 Kbps
Nominal bit rate : 2 000 Kbps
Width : 720 pixels
Height : 480 pixels
Display aspect ratio : 16/9
Frame rate : 23.976 fps
Standard : NTSC
Resolution : 24 bits
Colorimetry : 4:2:0
Scan type : Progressive
Bits/(Pixel*Frame) : 0.235
Stream size : 1.40 GiB (74%)
Title : Track 1
Writing library : x264 core 65

=================================[ Audio ]=====================================

[] Track 1

Format : AC-3
Codec ID : A_AC3
Bit rate mode : Constant
Bit rate : 448 Kbps
Channel(s) : 6 channels
Channel positions : Front: L C R, Surround: L R, LFE
Sampling rate : 48.0 KHz
Stream size : 330 MiB (17%)
Title : Track 1
Language : Chinese

[] Track 2 - Commentary

Format : AC-3
Codec ID : A_AC3
Bit rate mode : Constant
Bit rate : 192 Kbps
Channel(s) : 2 channels
Channel positions : L R
Sampling rate : 48.0 KHz
Stream size : 141 MiB (7%)
Title : Track 2
Language : English

=================================[ Subtitles ]=================================

Format : UTF-8
Codec ID : S_TEXT/UTF8
Title : Track 1
Language : English

=================================[ Chapters ]==================================

00:00:00.000 : :Chapter 1
00:02:49.536 : :Chapter 2
00:06:01.928 : :Chapter 3
00:12:29.515 : :Chapter 4
00:17:18.704 : :Chapter 5
00:19:53.592 : :Chapter 6
00:22:15.000 : :Chapter 7
00:26:19.110 : :Chapter 8
00:32:54.739 : :Chapter 9
00:36:39.664 : :Chapter 10
00:39:01.172 : :Chapter 11
00:41:01.358 : :Chapter 12
00:46:20.811 : :Chapter 13
00:50:42.372 : :Chapter 14
00:53:50.427 : :Chapter 15
00:58:54.197 : :Chapter 16
01:02:54.003 : :Chapter 17
01:06:01.791 : :Chapter 18
01:10:32.228 : :Chapter 19
01:15:42.871 : :Chapter 20
01:20:30.859 : :Chapter 21
01:24:47.082 : :Chapter 22
01:28:13.354 : :Chapter 23
01:31:40.194 : :Chapter 24
01:35:22.983 : :Chapter 25
01:36:31.685 : :Chapter 26
01:42:54.535 : :Chapter 27

=================================[ KARiNA ]===================================

Original Soundtrack:

Chungking Express 01 - Dream-Person (Cantonese).mp3
Chungking Express 02 - Chasing The Metaphysical Express.mp3
Chungking Express 03 - Seusuous Forest.mp3
Chungking Express 04 - Fornication In Space.mp3
Chungking Express 05 - Rain,Tear And Sweat.mp3
Chungking Express 06 - Night Snack.mp3
Chungking Express 07 - Entering The Hardboiled Wonderland.mp3
Chungking Express 08 - Rock Like A Dog.mp3
Chungking Express 09 - Heartbreak Interlude.mp3
Chungking Express 10 - Sweat Farewell.mp3
Chungking Express 11 - Weird Thinking.mp3
Chungking Express 12 - Bluebeard.mp3
Chungking Express 13 - Things in Life.mp3
Chungking Express 14 - Only You.mp3
Chungking Express 15 - Dream-Person (Mandarin).mp3

related torrents

Torrent name

health leech seeds Size
 


comments (0)

Main Menu