Other

Blue Gate Crossing 2002 DVDRip x264 AC3 KARiNA

  • Download 5x Faster
  • Download torrent
  • Direct Download
  • Rate this torrent +  |  -
Blue Gate Crossing 2002 DVDRip x264 AC3 KARiNA

Free and Direct Download with Usenet.nl 300GB+ free


Torrent info

Name:Blue Gate Crossing 2002 DVDRip x264 AC3 KARiNA

Total Size: 1.61 GB

Magnet: Magnet Link

Seeds: 1

Leechers: 2

Stream: Watch Online @ Movie4u

Last Updated: 2010-09-23 01:15:37 (Update Now)

Torrent added: 2009-08-27 15:28:58





Torrent Files List


Blue.Gate.Crossing.2002.DVDRip.x264.AC3-KARiNA.mkv (Size: 1.61 GB) (Files: 3)

 Blue.Gate.Crossing.2002.DVDRip.x264.AC3-KARiNA.mkv

1.61 GB

 bluegate-KARiNA.nfo

6.05 KB

 Torrent downloaded from Demonoid.com.txt

0.05 KB
 

Announce URL: http://inferno.demonoid.com:3418/announce

Torrent description




888 d8P d8888 8888888b. d8b 888b 888 d8888
888 d8P d88888 888 Y88b Y8P 8888b 888 d88888
888 d8P d88P888 888 888 88888b 888 d88P888
888d88K d88P 888 888 d88P 888 888Y88b 888 d88P 888
8888888b d88P 888 8888888P" 888 888 Y88b888 d88P 888
888 Y88b d88P 888 888 T88b 888 888 Y88888 d88P 888
888 Y88b d8888888888 888 T88b 888 888 Y8888 d8888888888
888 Y88b d88P 888 888 T88b 888 888 Y888 d88P 888


Blue.Gate.Crossing.2002.DVDRip.x264.AC3-KARiNA.mkv

Synopsis.

Blue Gate Crossing | Taiwan | 2002 | Directed by Chih-yen Yee

Bold tomboy Lin (Lin Shu-Hui Liang) and pretty, reserved Meng (Lun-Mei Guey) are
Taiwanese high school girls whose extremely close friendship revolves around Meng's
crush on Zhang (Bo-Lin Chen), the popular star of the boys' swim team. When Lin takes
it upon herself to act as the go-between for her friend, Zhang and Lin begin spending
time together. Though Lin attempts to envision herself with him, her true romantic
feelings are for her girlfriend Meng. BLUE GATE CROSSING's delicate subject matter is
carefully handled by director Yee Chih-Yen, whose sensitive script avoids stereotypes
in favor of an honest portrayal of the universally understood pangs of teenage
attraction. In the uncertainty of adolescent love, even the possibility of a kiss
from a crush seems nonexistent. With its truthful, slyly humorous approach, crisp,
bright imagery, and appealing, altogether believable young cast, BLUE GATE
CROSSING treats the confusion and frustration of growing up with respect that is
rarely found in similar Western teen films.

IMdB: http://www.imdb.com/title/tt0333764/ | Rating: 7.7 / 10 (1,034 votes)

General.

Complete name : Blue.Gate.Crossing.2002.DVDRip.x264.AC3-KARiNA.mkv
Format : Matroska
File size : 1.61 GiB
Duration : 1h 23mn
Overall bit rate : 2 772 Kbps
Source : Pony Canyon NTSC DVD9

Video.

Format : AVC
Codec ID : V_MPEG4/ISO/AVC
Bit rate : 1 948 Kbps
Nominal bit rate : 2 000 Kbps
Width : 716 pixels
Height : 470 pixels
Display aspect ratio : 16/9
Frame rate : 23.976 fps
Resolution : 24 bits
Colorimetry : 4:2:0
Scan type : Progressive
Bits/(Pixel*Frame) : 0.241
Stream size : 1.13 GiB (70%)
Title : Track 1
Writing library : x264 core 65

Audio.

[]Track 1

Format : AC-3
Codec ID : A_AC3
Bit rate mode : Constant
Bit rate : 384 Kbps
Channel(s) : 2 channels
Channel positions : L R
Sampling rate : 48.0 KHz
Stream size : 228 MiB (14%)
Title : Track 1
Language : Chinese

[]Track 2 - Japanese Dub

Format : AC-3
Codec ID : A_AC3
Bit rate mode : Constant
Bit rate : 384 Kbps
Channel(s) : 2 channels
Channel positions : L R
Sampling rate : 48.0 KHz
Stream size : 228 MiB (14%)
Title : Track 2
Language : Japanese

Subtitles.

Format : VobSub
Codec ID : S_VOBSUB
Title : Track 1
Language : English

Chapters.

00:00:00.000 : :Chapter 1
00:03:25.205 : :Chapter 2
00:05:24.157 : :Chapter 3
00:09:45.117 : :Chapter 4
00:14:23.863 : :Chapter 5
00:18:39.051 : :Chapter 6
00:25:14.813 : :Chapter 7
00:31:52.243 : :Chapter 8
00:35:17.949 : :Chapter 9
00:39:10.881 : :Chapter 10
00:42:58.609 : :Chapter 11
00:52:29.179 : :Chapter 12
00:57:46.996 : :Chapter 13
01:02:45.328 : :Chapter 14
01:10:36.131 : :Chapter 15
01:12:28.477 : :Chapter 16
01:16:52.407 : :Chapter 17
01:20:02.564 : :Chapter 18

KARiNA.

related torrents

Torrent name

health leech seeds Size
 

comments (0)

Main Menu