Other

Partner 2007 1/3 DVD XviD Untouched AC3 [ERG]

  • Download 5x Faster
  • Download torrent
  • Direct Download
  • Rate this torrent +  |  -
Partner 2007 1/3 DVD XviD Untouched AC3 [ERG]

Download FREE And Anonymously


Torrent info

Name:Partner 2007 1/3 DVD XviD Untouched AC3 [ERG]

Total Size: 1.45 GB

Magnet: Magnet Link

Seeds: 2

Leechers: 3

Stream: Watch Full Movie @ Movie4u

Last Updated: 2010-11-23 02:13:33 (Update Now)

Torrent added: 2009-08-27 14:34:21



VPN For Torrents

Torrent Files List


Partner 2007 1!3 DVD XviD Untouched AC3 [ERG].avi (Size: 1.45 GB) (Files: 1)

 Partner 2007 1!3 DVD XviD Untouched AC3 [ERG].avi

1.45 GB
 

Announce URL: http://majaa.net:2711/000072636988dbf25f023e879179cff1/announce

Torrent description

Screen Shots
Partner 2007 1/3 DVD XviD Untouched AC3 [ERG] preview 0
Partner 2007 1/3 DVD XviD Untouched AC3 [ERG] preview 1
Partner 2007 1/3 DVD XviD Untouched AC3 [ERG] preview 2
Partner 2007 1/3 DVD XviD Untouched AC3 [ERG] preview 3


File Info
Format : AVI
File size : 1.45 GiB
Duration : 2h 16mn
Overall bit rate : 1 520 Kbps
Bit rate : 1 066 Kbps
Width : 672 pixels
Height : 288 pixels
Display aspect ratio : 2.35:1
Frame rate : 23.976 fps
Stream size : 1.02 GiB (70%)

Audio

Format : AC-3
Duration : 2h 16mn
Bit rate mode : Constant
Bit rate : 448 Kbps
Channel(s) : 6 channels
Channel positions : Front: L C R, Surround: L R, LFE
Sampling rate : 48.0 KHz
Stream size : 439 MiB (29%)

related torrents

Torrent name

health leech seeds Size
 


comments (0)

Main Menu

 

script data-cfasync="false" src="//d2ghscazvn398x.cloudfront.net/?cshgd=690275">