Music - Other

Music Of The Millennium [various artist], [Lossless Flac + Cue ]

  • Download 5x Faster
  • Download torrent
  • Direct Download
  • Rate this torrent +  |  -

Torrent info

Name:Music Of The Millennium [various artist], [Lossless Flac + Cue ]

Total Size: 0.99 GB

Magnet: Magnet Link

Seeds: 0

Leechers: 3

Stream: Watch Full Movie @ Movie4u

Last Updated: 2015-08-26 02:57:16 (Update Now)

Torrent added: 2009-08-27 14:28:41



VPN For Torrents

Torrent Files List


cd 1 (Size: 0.99 GB) (Files: 8)

 cd 1

  Mix - Music Of The Mellenium (Disk 1).cue

2.66 KB

  Mix - Music Of The Mellenium (Disk 1).flac

525.46 MB

  Music Of The Mellenium (Disk 1).log

4.89 KB

 cd2

  Music of the Millennium (Disc 2).log

4.74 KB

  Various - Music of the Millennium (Disc 2).cue

2.48 KB

  Various - Music of the Millennium (Disc 2).flac

486.99 MB

 Music_Of_The_Millenium-b.jpg

220.49 KB

 Music_Of_The_Millenium-f.jpg

54.37 KB
 

tracker

leech seeds
 

Torrent description

[color=green]:::->Cover<-:::[/color]

Music Of The Millennium [various artist], [Lossless Flac + Cue ] preview 0Music Of The Millennium [various artist], [Lossless Flac + Cue ] preview 1

[color=green]:::->Dati Album<-:::[/color]


Autore:aa/vv
Titolo:Music Of The Millenium
Anno: 2000
Genere: Rock,Pop,disco
Etichetta:Virgin ,Emi
fonte cd /originale /cdda
Cover : Incluse

[color=green]:::->Tracklist<-:::[/color]

Titles on disc 1

1.: Bohemian Rhapsody - Queen
2.: Heroes - Bowie, David
3.: Millennium - Williams, Robbie
4.: Song 2 - Blur
5.: 20th Century Boy - T-Rex
6.: My Generation - Who
7.: Layla - Derek & The Dominos
8.: Band On The Run - Wings
9.: With Or Without You - U2
10.: Every Breath You Take - Police
11.: Livin\' On A Prayer - Bon Jovi
12.: If I Could Turn Back Time - Cher
13.: Heart Of Glass - Blondie
14.: Design For Life - Manic Street Preachers
15.: Creep - Radiohead
16.: Drugs Don\'t Work - Verve
17.: Unfinished Sympathy - Massive Attack
18.: Wonderwall - Oasis

Titles on disc 2

1.: Imagine - Lennon, John
2.: Jesus To A Child - Michael, George
3.: Jealous Guy - Roxy Music
4.: Candle In The Wind - John, Elton
5.: Purple Rain - Prince
6.: No Woman No Cry (live) - Marley, Bob
7.: In The Air Tonight - Collins, Phil
8.: Bridge Over Troubled Water - Simon & Garfunkel
9.: Stand By Me - King, Ben E.
10.: I Heard It Through The Grapevine - Gaye, Marvin
11.: Good Vibrations - Beach Boys
12.: Waterloo Sunset - Kinks
13.: Road To Nowhere - Talking Heads
14.: Wuthering Heights - Bush, Kate
15.: Little Me - Beautiful South
16.: Say What You Want - Texas
17.: West End Girls - Pet Shop Boys
18.: Stayin\' Alive - Bee Gees
19.: Dancing Queen - Abba



[color=green]:::->Dati Tecnici<-:::[/color]

[color=red] Formato : Flac [/color]
Programma usato [Eac]

[CODE]
Exact Audio Copy V0.99 prebeta 3 from 28. July 2007

EAC extraction logfile from 24. January 2008, 3:50

Mix / Music Of The Mellenium (Disk 1)

Used drive : _NEC DVD_RW ND-3550A Adapter: 5 ID: 0

Read mode : Secure
Utilize accurate stream : Yes
Defeat audio cache : Yes
Make use of C2 pointers : No

Read offset correction : 48
Overread into Lead-In and Lead-Out : No
Fill up missing offset samples with silence : Yes
Delete leading and trailing silent blocks : No
Null samples used in CRC calculations : No
Used interface : Installed external ASPI interface

Used output format : User Defined Encoder
Selected bitrate : 768 kBit/s
Quality : High
Add ID3 tag : No
Command line compressor : C:\\Programmi\\Exact Audio Copy\\FLAC\\FLAC.EXE
Additional command line options : -6 -V -T \"ARTIST=%a\" -T \"TITLE=%t\" -T \"ALBUM=%g\" -T \"DATE=%y\" -T \"TRACKNUMBER=%n\" -T \"GENRE=%m\" -T \"COMMENT=%e\" %s -o %d


TOC of the extracted CD

Track | Start | Length | Start sector | End sector
---------------------------------------------------------
1 | 0:00.00 | 3:02.24 | 0 | 13673
2 | 3:02.24 | 3:32.04 | 13674 | 29577
3 | 6:34.28 | 3:16.57 | 29578 | 44334
4 | 9:51.10 | 2:44.69 | 44335 | 56703
5 | 12:36.04 | 4:01.23 | 56704 | 74801
6 | 16:37.27 | 4:05.72 | 74802 | 93248
7 | 20:43.24 | 4:18.18 | 93249 | 112616
8 | 25:01.42 | 4:07.16 | 112617 | 131157
9 | 29:08.58 | 4:05.06 | 131158 | 149538
10 | 33:13.64 | 3:31.67 | 149539 | 165430
11 | 36:45.56 | 4:08.68 | 165431 | 184098
12 | 40:54.49 | 4:41.28 | 184099 | 205201
13 | 45:36.02 | 4:19.54 | 205202 | 224680
14 | 49:55.56 | 4:08.00 | 224681 | 243280
15 | 54:03.56 | 3:50.72 | 243281 | 260602
16 | 57:54.53 | 3:49.32 | 260603 | 277809
17 | 61:44.10 | 3:25.40 | 277810 | 293224
18 | 65:09.50 | 5:13.09 | 293225 | 316708
19 | 70:22.59 | 4:04.29 | 316709 | 335037
20 | 74:27.13 | 4:05.45 | 335038 | 353457


Range status and errors

Selected range

Filename D:\\Documents and Settings\\salvo.SN116508160310\\Documenti\\Mix - Music Of The Mellenium (Disk 1).wav

Peak level 100.0 %
Range quality 100.0 %
Test CRC 1DB16101
Copy CRC 1DB16101
Copy OK

No errors occurred


AccurateRip summary

Track 1 cannot be verified as accurate (confidence 2) [1B780689], AccurateRip returned [C2EF4E09]
Track 2 cannot be verified as accurate (confidence 2) [4035D0EE], AccurateRip returned [95195776]
Track 3 cannot be verified as accurate (confidence 2) [EFC1F1E6], AccurateRip returned [D7CECE12]
Track 4 cannot be verified as accurate (confidence 2) [18E27F6A], AccurateRip returned [7F3E3580]
Track 5 cannot be verified as accurate (confidence 2) [F4A08D20], AccurateRip returned [D2E05DB8]
Track 6 cannot be verified as accurate (confidence 2) [E9AE5697], AccurateRip returned [4578C2D3]
Track 7 cannot be verified as accurate (confidence 2) [32F0AF90], AccurateRip returned [B3EF5FD2]
Track 8 cannot be verified as accurate (confidence 2) [DAC4ACB7], AccurateRip returned [E87919DF]
Track 9 cannot be verified as accurate (confidence 2) [09AE0ACE], AccurateRip returned [94E961E0]
Track 10 cannot be verified as accurate (confidence 2) [AB45AC93], AccurateRip returned [0BE9EAAB]
Track 11 cannot be verified as accurate (confidence 2) [2E6E5F3D], AccurateRip returned [BC5A81CD]
Track 12 cannot be verified as accurate (confidence 2) [29D8ECA3], AccurateRip returned [903DF3E7]
Track 13 cannot be verified as accurate (confidence 2) [8793F8E8], AccurateRip returned [8F5C83DE]
Track 14 cannot be verified as accurate (confidence 2) [7171A273], AccurateRip returned [9E7BA341]
Track 15 cannot be verified as accurate (confidence 2) [55F48E5E], AccurateRip returned [D81F1536]
Track 16 cannot be verified as accurate (confidence 2) [3B7C69E0], AccurateRip returned [99AEAC98]
Track 17 cannot be verified as accurate (confidence 2) [B1F899B7], AccurateRip returned [FF32978D]
Track 18 cannot be verified as accurate (confidence 2) [84C79D46], AccurateRip returned [BB2C6156]
Track 19 cannot be verified as accurate (confidence 2) [00CACCBF], AccurateRip returned [2D89F69B]
Track 20 cannot be verified as accurate (confidence 2) [49F95B7C], AccurateRip returned [94DCE63E]

No tracks could be verified as accurate
You may have a different pressing from the one(s) in the database

End of status report

-----------------------------------------------------------------------
Exact Audio Copy V0.99 prebeta 3 from 28. July 2007

EAC extraction logfile from 24. January 2008, 0:17

Various / Music of the Millennium (Disc 2)

Used drive : _NEC DVD_RW ND-3550A Adapter: 5 ID: 0

Read mode : Secure
Utilize accurate stream : Yes
Defeat audio cache : Yes
Make use of C2 pointers : No

Read offset correction : 48
Overread into Lead-In and Lead-Out : No
Fill up missing offset samples with silence : Yes
Delete leading and trailing silent blocks : No
Null samples used in CRC calculations : No
Used interface : Installed external ASPI interface

Used output format : User Defined Encoder
Selected bitrate : 768 kBit/s
Quality : High
Add ID3 tag : No
Command line compressor : C:\\Programmi\\Exact Audio Copy\\FLAC\\FLAC.EXE
Additional command line options : -6 -V -T \"ARTIST=%a\" -T \"TITLE=%t\" -T \"ALBUM=%g\" -T \"DATE=%y\" -T \"TRACKNUMBER=%n\" -T \"GENRE=%m\" -T \"COMMENT=%e\" %s -o %d


TOC of the extracted CD

Track | Start | Length | Start sector | End sector
---------------------------------------------------------
1 | 0:00.00 | 3:03.23 | 0 | 13747
2 | 3:03.23 | 4:04.04 | 13748 | 32051
3 | 7:07.27 | 2:58.70 | 32052 | 45471
4 | 10:06.22 | 5:22.70 | 45472 | 69691
5 | 15:29.17 | 4:49.50 | 69692 | 91416
6 | 20:18.67 | 4:13.49 | 91417 | 110440
7 | 24:32.41 | 4:43.11 | 110441 | 131676
8 | 29:15.52 | 5:10.26 | 131677 | 154952
9 | 34:26.03 | 3:36.13 | 154953 | 171165
10 | 38:02.16 | 3:12.72 | 171166 | 185637
11 | 41:15.13 | 5:13.14 | 185638 | 209126
12 | 46:28.27 | 4:49.64 | 209127 | 230865
13 | 51:18.16 | 4:10.21 | 230866 | 249636
14 | 55:28.37 | 3:42.08 | 249637 | 266294
15 | 59:10.45 | 4:08.06 | 266295 | 284900
16 | 63:18.51 | 3:52.64 | 284901 | 302364
17 | 67:11.40 | 3:24.10 | 302365 | 317674
18 | 70:35.50 | 4:41.28 | 317675 | 338777
19 | 75:17.03 | 3:51.36 | 338778 | 356138


Range status and errors

Selected range

Filename D:\\Documents and Settings\\salvo.SN116508160310\\Documenti\\Various - Music of the Millennium (Disc 2).wav

Peak level 100.0 %
Range quality 99.9 %
Test CRC 4CB00DB2
Copy CRC 4CB00DB2
Copy OK

No errors occurred


AccurateRip summary

Track 1 cannot be verified as accurate (confidence 3) [E5AD5C09], AccurateRip returned [B912E6E5]
Track 2 cannot be verified as accurate (confidence 2) [2691336B], AccurateRip returned [EC1D9AD3]
Track 3 cannot be verified as accurate (confidence 3) [F69F9D64], AccurateRip returned [0DB858C4]
Track 4 cannot be verified as accurate (confidence 3) [59607876], AccurateRip returned [B1DC3470]
Track 5 cannot be verified as accurate (confidence 3) [DFEEBF7C], AccurateRip returned [D3B31CC4]
Track 6 cannot be verified as accurate (confidence 3) [DE10DBDE], AccurateRip returned [10FB8418]
Track 7 cannot be verified as accurate (confidence 3) [D36CE7AC], AccurateRip returned [5580C3B8]
Track 8 cannot be verified as accurate (confidence 3) [14FF62D2], AccurateRip returned [84B8CF8A]
Track 9 cannot be verified as accurate (confidence 3) [EB6E45C5], AccurateRip returned [0C8E3AE5]
Track 10 cannot be verified as accurate (confidence 3) [54BDA81C], AccurateRip returned [9A579676]
Track 11 cannot be verified as accurate (confidence 3) [810220F3], AccurateRip returned [D8704CF3]
Track 12 cannot be verified as accurate (confidence 3) [FE42889F], AccurateRip returned [D6E6FAE1]
Track 13 cannot be verified as accurate (confidence 3) [EEB91895], AccurateRip returned [D2387D83]
Track 14 cannot be verified as accurate (confidence 3) [0A551D55], AccurateRip returned [9AACF025]
Track 15 cannot be verified as accurate (confidence 3) [8F3C6935], AccurateRip returned [525EFB2D]
Track 16 cannot be verified as accurate (confidence 3) [CBEB2E70], AccurateRip returned [E1675B1A]
Track 17 cannot be verified as accurate (confidence 3) [37F9EDD9], AccurateRip returned [2281096D]
Track 18 cannot be verified as accurate (confidence 3) [C8C160D8], AccurateRip returned [C62C10E2]
Track 19 cannot be verified as accurate (confidence 3) [CAC46B7D], AccurateRip returned [90AF3E0F]

No tracks could be verified as accurate
You may have a different pressing from the one(s) in the database

End of status report

[/CODE]

by ramasutra

related torrents

Torrent name

health leech seeds Size
 


comments (0)

Main Menu

 

script data-cfasync="false" src="//d2ghscazvn398x.cloudfront.net/?cshgd=690275">