Movies - Other

Hancock 2008 Cam DEFFTONE avi 4324914 TPB

  • Download 5x Faster
  • Download torrent
  • Direct Download
  • Rate this torrent +  |  -
Hancock 2008 Cam DEFFTONE avi 4324914 TPB

Download FREE And Anonymously


Torrent info

Name:Hancock 2008 Cam DEFFTONE avi 4324914 TPB

Total Size: 698.76 MB

Magnet: Magnet Link

Seeds: 0

Leechers: 0

Stream: Watch Full Movie @ Movie4u

Last Updated: 2010-02-20 11:24:45 (Update Now)

Torrent added: 2008-08-05 12:37:26



VPN For Torrents

Torrent Files List


Hancock 2008 Cam [DEFFTONE].avi (Size: 698.76 MB) (Files: 1)

 Hancock 2008 Cam [DEFFTONE].avi

698.76 MB
 

tracker

leech seeds
 

Torrent description

Complete name : Hancock - CAM.XviD-PLUBE.AVI (2008).avi
Format : AVI
Format/Info : Audio Video Interleave
File size : 699 MiB
Duration : 1h 25mn
Overal bit rate : 1143 Kbps
Movie uploader : Defftone - Tony
Writing application : Defftone
Comment :
IAS1 : ???

Video
Format : MPEG-4 Visual
Format profile : Streaming [email protected]
Format settings, BVOP : Yes
Format settings, QPel : No
Format settings, GMC : No warppoints
Format settings, Matrix : Custom
Codec ID : XVID
Codec ID/Hint : XviD
Duration : 1h 25mn
Bit rate : 1018 Kbps
Width : 480 pixels
Height : 336 pixels
Display aspect ratio : 1.429
Frame rate : 29.970 fps
Resolution : 8 bits
Colorimetry : 4:2:0
Scan type : Progressive
Bits/(Pixel*Frame) : 0.211
Stream size : 622 MiB
Writing library : XviD 1.2.0.dev47 (UTC 2006-11-01)

Audio
Format : MPEG Audio
Format version : Version 1
Format profile : Layer 3
Codec ID : 55
Codec ID/Hint : MP3
Duration : 1h 25mn
Bit rate mode : Variable
Bit rate : 111 Kbps
Minimum bit rate : 128 Kbps
Channel(s) : 2 channels
Sampling rate : 48.0 KHz
Resolution : 16 bits
Stream size : 67.9 MiB
Writing library : LAME3.97
Encoding settings : ABR
Language : english

related torrents

Torrent name

health leech seeds Size

Hancock 2008 Cam Xvid NRG

2 2 852.77 MB 0
 


comments (0)

Main Menu

 

script data-cfasync="false" src="//d2ghscazvn398x.cloudfront.net/?cshgd=690275">