Anime - Other

H N H Jin Roh Deutsch DVDRIP DIVX avi

  • Download 5x Faster
  • Download torrent
  • Direct Download
  • Rate this torrent +  |  -
H N H Jin Roh Deutsch DVDRIP DIVX avi

Anonymous and Direct Download 300GB+ free


Torrent info

Name:H N H Jin Roh Deutsch DVDRIP DIVX avi

Total Size: 687.24 MB

Magnet: Magnet Link

Seeds: 3

Leechers: 0

Stream: Watch Online @ Movie4u

Last Updated: 2010-07-22 06:12:55 (Update Now)

Torrent added: 2008-08-05 12:33:11




Torrent Files List


Jin Roh_Deutsch_DVDRIP_DIVX.avi (Size: 687.24 MB) (Files: 1)

 Jin Roh_Deutsch_DVDRIP_DIVX.avi

687.24 MB
 

Announce URL: http://h-n-h.ath.cx/announce.php

Torrent description

Jin.Roh_Deutsch_DVDRIP_DIVX.avi
Tokyo, Zehn Jahre nach dem 2. Weltkrieg. Immer wieder kommt es zu gewalttaetigen
Zusammenstoessen zwischen Regierungsgegnern und der Hauptstadtpolizei.
Nach einem Bombenanschlag stellt Kazuki Fuse, Angehoeriger einer speziellen
Anti-Terroreinheit, ein junges Mdchen und muss hilflos mit ansehen,
wie sie sich vor seinen Augen in die Luft sprengt. Als er wenig spaeter
ihre Schwester kennenlernt, entwickelt sich eine ungewoehnliche
Beziehung zwischen den beiden. Langsam beginnen Zweifel in Fus aufzukeimen
Mit der atemberaubenden Story von Jin-Roh, ist dem erfolgreichen Drehbuchautor
Mamoru Oshii Ghost in the Shell ein weiteres Meisterwerk der japanischen
Zeichentrick-Kunst gelungen.



General
Format : AVI
Format/Info : Audio Video Interleave
Dateigre : 687 MiB
Duration : 1h 41min
Gesamte Bitrate : 945 Kbps
verwendete Encoder-Bibliothek : VirtualDub build 0/release

Video
Format : MPEG-4 Visual
Codec ID : DIV3
Codec ID/Hint : DivX 3 Low
Duration : 1h 41min
Bitrate : 804 Kbps
Breite : 608 Pixel
Hhe : 336 Pixel
Bildseitenverhltnis : 16/9
Bildwiederholungsrate : 25.000 FPS
Auflsung : 24 bits
Bits/(Pixel*Frame) : 0.157
Stream size : 585 MiB

Audio
Format : MPEG Audio
Format version : Version 1 / Layer 3
Codec ID : 55
Codec ID/Hint : MP3
Duration : 1h 41min
Bitraten-Modus : CBR
Bitrate : 128 Kbps
Kanle : 2 Kanle
Samplingrate : 44.1 KHz
Auflsung : 16 bits
Stream size : 93.5 MiB
verwendete Encoder-Bibliothek : LAME3.88 (alpha)




Unsere URL http://h-n-h.ath.cx

related torrents

Torrent name

health leech seeds Size
 


comments (0)

Main Menu