Music - Other

KT Tunstall Eye To The Telescope[Flac][Hectorbusinspector][h33t]

  • Download 5x Faster
  • Download torrent
  • Direct Download
  • Rate this torrent +  |  -

Torrent info

Name:KT Tunstall Eye To The Telescope[Flac][Hectorbusinspector][h33t]

Total Size: 299.47 MB

Magnet: Magnet Link

Seeds: 0

Leechers: 2

Stream: Watch Full Movie @ Movie4u

Last Updated: 2015-09-08 15:49:13 (Update Now)

Torrent added: 2009-08-27 11:43:11



VPN For Torrents

Torrent Files List


Album Art & Lyrics (Size: 299.47 MB) (Files: 18)

 Album Art & Lyrics

  001 (2).jpg

310.88 KB

  001.jpg

129.02 KB

  Kt Art & Lyryics.cbr

4.18 MB

 Eye to the Telescope

  KT Tunstall - Eye to the Telescope - 01. Other Side Of The World.flac

25.04 MB

  KT Tunstall - Eye to the Telescope - 02. Another Place To Fall.flac

30.88 MB

  KT Tunstall - Eye to the Telescope - 03. Under The Weather.flac

22.68 MB

  KT Tunstall - Eye to the Telescope - 04. Black Horse and the Cherry Tree.flac

20.72 MB

  KT Tunstall - Eye to the Telescope - 05. Miniature Disasters.flac

24.15 MB

  KT Tunstall - Eye to the Telescope - 06. Silent Sea.flac

24.00 MB

  KT Tunstall - Eye to the Telescope - 07. Universe & U.flac

25.67 MB

  KT Tunstall - Eye to the Telescope - 08. False Alarm.flac

26.22 MB

  KT Tunstall - Eye to the Telescope - 09. Suddenly I See.flac

22.87 MB

  KT Tunstall - Eye to the Telescope - 10. Stoppin' The Love.flac

24.74 MB

  KT Tunstall - Eye to the Telescope - 11. Heal Over.flac

26.96 MB

  KT Tunstall - Eye to the Telescope - 12. Through The Dark.flac

20.92 MB

 introduction to us, we are not pirates.txt

4.55 KB

 kt info.txt

17.47 KB

 tracked_by_h33t_com.txt

0.02 KB
 

tracker

leech seeds
 

Torrent description

If the art of the female singer-songwriter revolves around coffee table soliloquies then Eye To The Telescope--the debut album
from Edinburgh-born chanteuse / guitarist KT Tunstall--is a pleasing mediation between the traditional
demands of brooding egocentricity (espresso) and frothy commerciality (cappuccino). KT Tunstall has star quality.
"Suddenly I See" is an effortlessly liberating pop fillip while, conversely, "False Alarm" redresses Abba's "The Winner Takes It All" for
losers who had nothing to lose to begin with. However, Tunstall
isn't entirely convinced by the compromise ( "I'm struggling to cater for the space I'm meant to fill"
she sings) and "Miniature Disasters"--one of several strong numbers showcasing her aptitude for wrapping up pop tunes in either folky
bluesiness or ponderous jazz--catalogues her desires for unfettered self-expression. The opening cut "Other Side Of The World" might sound
like Dido without the giftwrapped grief
(she's none too flattered with the comparisons) but Eye To The Telescope is spiritually closer to Carol King and Elvis Costello than Katie Melua.
And that's no bad thing. --Kevin Maidment

From the Label
Eye To The Telescope is the debut album from acclaimed Scottish singer-songwriter KT Tunstall.
Born in Edinburgh and brought up in St Andrews, KT comes out of a burgeoning
East Coast music scene that has already spawned the likes of The Fence Collective, The Beta Band and Dogs Die In Hot Cars.
The album was produced by Steve Osborne (U2/New Order/Doves) and celebrates classic singer-songwriting in the tradition of Rikki Lee Jones, Carole King and
Fleetwood Mac with songs that manage to be both intensely personal and incredibly accessible.1. Other Side Of The World 3:34
***********************************************************************************************
1. Other Side Of The World 3:34

2. Another Place To Fall 4:11

3. Under The Weather 3:36 Not Available

4. Black Horse And The Cherry Tree (Radio Version) 2:52

5. Miniature Disasters 3:31

6. Silent Sea 3:46

7. Universe & U 4:01

8. False Alarm 3:49

9. Suddenly I See 3:21

10. Stoppin' The Love 4:02

11. Heal Over 4:26

12. Through The Dark 3:481. Other Side Of The World 3:34
*************************************************************************************************


*************************************************************************************************
General
Complete name : KT Tunstall Eye To The Telescope[Flac][Hectorbusinspector][h33t]\Eye to the Telescope\KT Tunstall - Eye to the Telescope - 01. Other Side Of The World.flac
Format : FLAC
Format/Info : Free Lossless Audio Codec
File size : 25.0 MiB
Duration : 3mn 34s
Overall bit rate : 979 Kbps
Album : Eye to the Telescope
Track name : Other Side Of The World
Track name/Position : 1
Performer : KT Tunstall
Genre : Folk/Rock
Recorded date : 2004
__________________________________________________________________________________________________
Audio
Format : FLAC
Format/Info : Free Lossless Audio Codec
Duration : 3mn 34s
Bit rate mode : Variable
Bit rate : 979 Kbps
Channel(s) : 2 channels
Sampling rate : 44.1 KHz
Resolution : 16 bits
Stream size : 25.0 MiB (100%)
Writing library : libFLAC 1.2.1 (UTC 2007-09-17)

General
Complete name : KT Tunstall Eye To The Telescope[Flac][Hectorbusinspector][h33t]\Eye to the Telescope\KT Tunstall - Eye to the Telescope - 02. Another Place To Fall.flac
Format : FLAC
Format/Info : Free Lossless Audio Codec
File size : 30.9 MiB
Duration : 4mn 11s
Overall bit rate : 1 030 Kbps
Album : Eye to the Telescope
Track name : Another Place To Fall
Track name/Position : 2
Performer : KT Tunstall
Genre : Folk/Rock
Recorded date : 2004

Audio
Format : FLAC
Format/Info : Free Lossless Audio Codec
Duration : 4mn 11s
Bit rate mode : Variable
Bit rate : 1 030 Kbps
Channel(s) : 2 channels
Sampling rate : 44.1 KHz
Resolution : 16 bits
Stream size : 30.9 MiB (100%)
Writing library : libFLAC 1.2.1 (UTC 2007-09-17)

General
Complete name : KT Tunstall Eye To The Telescope[Flac][Hectorbusinspector][h33t]\Eye to the Telescope\KT Tunstall - Eye to the Telescope - 03. Under The Weather.flac
Format : FLAC
Format/Info : Free Lossless Audio Codec
File size : 22.7 MiB
Duration : 3mn 36s
Overall bit rate : 878 Kbps
Album : Eye to the Telescope
Track name : Under The Weather
Track name/Position : 3
Performer : KT Tunstall
Genre : Folk/Rock
Recorded date : 2004

Audio
Format : FLAC
Format/Info : Free Lossless Audio Codec
Duration : 3mn 36s
Bit rate mode : Variable
Bit rate : 878 Kbps
Channel(s) : 2 channels
Sampling rate : 44.1 KHz
Resolution : 16 bits
Stream size : 22.7 MiB (100%)
Writing library : libFLAC 1.2.1 (UTC 2007-09-17)

General
Complete name : KT Tunstall Eye To The Telescope[Flac][Hectorbusinspector][h33t]\Eye to the Telescope\KT Tunstall - Eye to the Telescope - 04. Black Horse and the Cherry Tree.flac
Format : FLAC
Format/Info : Free Lossless Audio Codec
File size : 20.7 MiB
Duration : 2mn 52s
Overall bit rate : 1 008 Kbps
Album : Eye to the Telescope
Track name : Black Horse and the Cherry Tree
Track name/Position : 4
Performer : KT Tunstall
Genre : Folk/Rock
Recorded date : 2004

Audio
Format : FLAC
Format/Info : Free Lossless Audio Codec
Duration : 2mn 52s
Bit rate mode : Variable
Bit rate : 1 008 Kbps
Channel(s) : 2 channels
Sampling rate : 44.1 KHz
Resolution : 16 bits
Stream size : 20.7 MiB (100%)
Writing library : libFLAC 1.2.1 (UTC 2007-09-17)

General
Complete name : KT Tunstall Eye To The Telescope[Flac][Hectorbusinspector][h33t]\Eye to the Telescope\KT Tunstall - Eye to the Telescope - 05. Miniature Disasters.flac
Format : FLAC
Format/Info : Free Lossless Audio Codec
File size : 24.1 MiB
Duration : 3mn 31s
Overall bit rate : 958 Kbps
Album : Eye to the Telescope
Track name : Miniature Disasters
Track name/Position : 5
Performer : KT Tunstall
Genre : Folk/Rock
Recorded date : 2004

Audio
Format : FLAC
Format/Info : Free Lossless Audio Codec
Duration : 3mn 31s
Bit rate mode : Variable
Bit rate : 957 Kbps
Channel(s) : 2 channels
Sampling rate : 44.1 KHz
Resolution : 16 bits
Stream size : 24.1 MiB (100%)
Writing library : libFLAC 1.2.1 (UTC 2007-09-17)

General
Complete name : KT Tunstall Eye To The Telescope[Flac][Hectorbusinspector][h33t]\Eye to the Telescope\KT Tunstall - Eye to the Telescope - 06. Silent Sea.flac
Format : FLAC
Format/Info : Free Lossless Audio Codec
File size : 24.0 MiB
Duration : 3mn 48s
Overall bit rate : 883 Kbps
Album : Eye to the Telescope
Track name : Silent Sea
Track name/Position : 6
Performer : KT Tunstall
Genre : Folk/Rock
Recorded date : 2004

Audio
Format : FLAC
Format/Info : Free Lossless Audio Codec
Duration : 3mn 48s
Bit rate mode : Variable
Bit rate : 882 Kbps
Channel(s) : 2 channels
Sampling rate : 44.1 KHz
Resolution : 16 bits
Stream size : 24.0 MiB (100%)
Writing library : libFLAC 1.2.1 (UTC 2007-09-17)

General
Complete name : KT Tunstall Eye To The Telescope[Flac][Hectorbusinspector][h33t]\Eye to the Telescope\KT Tunstall - Eye to the Telescope - 07. Universe & U.flac
Format : FLAC
Format/Info : Free Lossless Audio Codec
File size : 25.7 MiB
Duration : 4mn 1s
Overall bit rate : 893 Kbps
Album : Eye to the Telescope
Track name : Universe & U
Track name/Position : 7
Performer : KT Tunstall
Genre : Folk/Rock
Recorded date : 2004

Audio
Format : FLAC
Format/Info : Free Lossless Audio Codec
Duration : 4mn 1s
Bit rate mode : Variable
Bit rate : 893 Kbps
Channel(s) : 2 channels
Sampling rate : 44.1 KHz
Resolution : 16 bits
Stream size : 25.7 MiB (100%)
Writing library : libFLAC 1.2.1 (UTC 2007-09-17)

General
Complete name : KT Tunstall Eye To The Telescope[Flac][Hectorbusinspector][h33t]\Eye to the Telescope\KT Tunstall - Eye to the Telescope - 08. False Alarm.flac
Format : FLAC
Format/Info : Free Lossless Audio Codec
File size : 26.2 MiB
Duration : 3mn 50s
Overall bit rate : 956 Kbps
Album : Eye to the Telescope
Track name : False Alarm
Track name/Position : 8
Performer : KT Tunstall
Genre : Folk/Rock
Recorded date : 2004

Audio
Format : FLAC
Format/Info : Free Lossless Audio Codec
Duration : 3mn 50s
Bit rate mode : Variable
Bit rate : 956 Kbps
Channel(s) : 2 channels
Sampling rate : 44.1 KHz
Resolution : 16 bits
Stream size : 26.2 MiB (100%)
Writing library : libFLAC 1.2.1 (UTC 2007-09-17)

General
Complete name : KT Tunstall Eye To The Telescope[Flac][Hectorbusinspector][h33t]\Eye to the Telescope\KT Tunstall - Eye to the Telescope - 09. Suddenly I See.flac
Format : FLAC
Format/Info : Free Lossless Audio Codec
File size : 22.9 MiB
Duration : 3mn 21s
Overall bit rate : 951 Kbps
Album : Eye to the Telescope
Track name : Suddenly I See
Track name/Position : 9
Performer : KT Tunstall
Genre : Folk/Rock
Recorded date : 2004

Audio
Format : FLAC
Format/Info : Free Lossless Audio Codec
Duration : 3mn 21s
Bit rate mode : Variable
Bit rate : 951 Kbps
Channel(s) : 2 channels
Sampling rate : 44.1 KHz
Resolution : 16 bits
Stream size : 22.9 MiB (100%)
Writing library : libFLAC 1.2.1 (UTC 2007-09-17)

General
Complete name : KT Tunstall Eye To The Telescope[Flac][Hectorbusinspector][h33t]\Eye to the Telescope\KT Tunstall - Eye to the Telescope - 10. Stoppin' The Love.flac
Format : FLAC
Format/Info : Free Lossless Audio Codec
File size : 24.7 MiB
Duration : 4mn 2s
Overall bit rate : 855 Kbps
Album : Eye to the Telescope
Track name : Stoppin' The Love
Track name/Position : 10
Performer : KT Tunstall
Genre : Folk/Rock
Recorded date : 2004

Audio
Format : FLAC
Format/Info : Free Lossless Audio Codec
Duration : 4mn 2s
Bit rate mode : Variable
Bit rate : 855 Kbps
Channel(s) : 2 channels
Sampling rate : 44.1 KHz
Resolution : 16 bits
Stream size : 24.7 MiB (100%)
Writing library : libFLAC 1.2.1 (UTC 2007-09-17)

General
Complete name : KT Tunstall Eye To The Telescope[Flac][Hectorbusinspector][h33t]\Eye to the Telescope\KT Tunstall - Eye to the Telescope - 11. Heal Over.flac
Format : FLAC
Format/Info : Free Lossless Audio Codec
File size : 27.0 MiB
Duration : 4mn 27s
Overall bit rate : 847 Kbps
Album : Eye to the Telescope
Track name : Heal Over
Track name/Position : 11
Performer : KT Tunstall
Genre : Folk/Rock
Recorded date : 2004

Audio
Format : FLAC
Format/Info : Free Lossless Audio Codec
Duration : 4mn 27s
Bit rate mode : Variable
Bit rate : 846 Kbps
Channel(s) : 2 channels
Sampling rate : 44.1 KHz
Resolution : 16 bits
Stream size : 26.9 MiB (100%)
Writing library : libFLAC 1.2.1 (UTC 2007-09-17)

General
Complete name : KT Tunstall Eye To The Telescope[Flac][Hectorbusinspector][h33t]\Eye to the Telescope\KT Tunstall - Eye to the Telescope - 12. Through The Dark.flac
Format : FLAC
Format/Info : Free Lossless Audio Codec
File size : 20.9 MiB
Duration : 3mn 48s
Overall bit rate : 769 Kbps
Album : Eye to the Telescope
Track name : Through The Dark
Track name/Position : 12
Performer : KT Tunstall
Genre : Folk/Rock
Recorded date : 2004

Audio
Format : FLAC
Format/Info : Free Lossless Audio Codec
Duration : 3mn 48s
Bit rate mode : Variable
Bit rate : 769 Kbps
Channel(s) : 2 channels
Sampling rate : 44.1 KHz
Resolution : 16 bits
Stream size : 20.9 MiB (100%)
Writing library : libFLAC 1.2.1 (UTC 2007-09-17)

*************************************************************************************************

*************************************************************************************************
*************************************************************************************************
Track Files:Flac.
Art View With Cdisplay.Or
Extact With Winrar.
*************************************************************************************************
H33t.com

Tell A Friend.

I Love Seeders.*********************
& Thanx Would Be Cool*****
***********************

related torrents

Torrent name

health leech seeds Size
 


comments (0)

Main Menu

 

script data-cfasync="false" src="//d2ghscazvn398x.cloudfront.net/?cshgd=690275">