Thriller

State Of Play 2009 iTALiAN DVDRip XviD Republic UltimaFrontiera

  • Download 5x Faster
  • Download torrent
  • Direct Download
  • Rate this torrent +  |  -
State Of Play 2009 iTALiAN DVDRip XviD Republic UltimaFrontiera

Free and Direct Download with Usenet.nl 300GB+ free


Torrent info

Name:State Of Play 2009 iTALiAN DVDRip XviD Republic UltimaFrontiera

Total Size: 1.37 GB

Magnet: Magnet Link

Seeds: 0

Leechers: 0

Stream: Watch Online @ Movie4u

Last Updated: 0000-00-00 00:00:00 (Update Now)

Torrent added: 2009-08-27 10:34:03





Torrent Files List


State.Of.Play.2009.iTALiAN.DVDRip.XviD-Republic-CD1.avi (Size: 1.37 GB) (Files: 2)

 State.Of.Play.2009.iTALiAN.DVDRip.XviD-Republic-CD1.avi

699.77 MB

 State.Of.Play.2009.iTALiAN.DVDRip.XviD-Republic-CD2.avi

700.21 MB
 

Announce URL:

Torrent description


Titolo originale: State of Play
Nazione: U.S.A.
Anno: 2009
Genere: Azione, Thriller
Durata: 125'
Regia: Kevin Macdonald

Produzione: Andell Entertainment, Bevan-Fellner, Relativity Media, Studio Canal, Universal Pictures, Working Title Films
Distribuzione: UIP
Data di uscita: 30 Aprile 2009 (cinema)


Russell Crowe, Rachel McAdams, Ben Affleck, Katy Mixon, Jason Bateman, Robin Wright Penn, Jeff Daniels, Helen Mirren, Viola Davis, Maria Thayer


Un reporter del D.C. (District of Columbia) Cal McCaffrey, grazie alla sua scaltrezza, si ritrova a risolvere un mistero di delitti e collusione nel quale sono coinvolti alcuni dei politici e degli uomini d'affari più promettenti del paese. Il membro del congresso degli Stati Uniti Stephen Collins (Ben Affleck), bello e imperturbabile, è il futuro del suo partito politico: onorevole eletto, è il presidente di un comitato che supervisiona la spesa della difesa. Tutti gli occhi sono puntati su questo astro nascente che dovrebbe rappresentare il suo partito nella prossima corsa alla Casa Bianca. Tutto questo finché la sua assistente/addetta alle ricerche ed amante viene brutalmente assassinata e segreti seppelliti da tempo cominciano a tornare alla luce. McCaffrey vanta due dubbie fortune: un'amicizia di vecchia data con Collins e un redattore capo senza scrupoli, Cameron (interpretato dall'attrice vincitrice dell'Oscar Helen Mirren), che lo incarica di investigare al riguardo. Mentre lui e la sua partner Della (Rachel McAdams) cercano di scoprire l'identità dell'assassino, McCaffrey si imbatte in una serie di verità opportunamente insabbiate che rischiano di mandare in crisi le strutture del potere del paese. E in una città di spin-doctors e di ricchi politicanti, scoprirà una verità: quando la posta in gioco è di miliardi di dollari, l'integrità, l'amore o la vita di chiunque sono sempre in pericolo.


General
Complete name : State.Of.Play.2009.iTALiAN.DVDRip.XviD-Republic-CD2.avi
Format : AVI
Format/Info : Audio Video Interleave
File size : 700 MiB
Duration : 1h 3mn
Overall bit rate : 1 543 Kbps
Writing application : VirtualDubMod 1.5.10.2 (build 2540/release)
Writing library : VirtualDubMod build 2540/release

Video
ID : 0
Format : MPEG-4 Visual
Format profile : [email protected]
Format settings, BVOP : Yes
Format settings, QPel : No
Format settings, GMC : No warppoints
Format settings, Matrix : Default (MPEG)
Codec ID : XVID
Codec ID/Hint : XviD
Duration : 1h 3mn
Bit rate : 1 149 Kbps
Width : 640 pixels
Height : 272 pixels
Display aspect ratio : 2.35
Frame rate : 25.000 fps
Resolution : 24 bits
Colorimetry : 4:2:0
Scan type : Progressive
Bits/(Pixel*Frame) : 0.264
Stream size : 522 MiB (74%)
Writing library : XviD 1.2.1 (UTC 2008-12-04)

Audio
ID : 1
Format : AC-3
Format/Info : Audio Coding 3
Codec ID : 2000
Duration : 1h 3mn
Bit rate mode : Constant
Bit rate : 384 Kbps
Channel(s) : 6 channels
Channel positions : Front: L C R, Surround: L R, LFE
Sampling rate : 48.0 KHz
Stream size : 174 MiB (25%)
Alignment : Split accross interleaves
Interleave, duration : 40 ms (1.00 video frame)
Interleave, preload duration : 500 ms

related torrents

Torrent name

health leech seeds Size
 

comments (0)

Main Menu