Music - Other

Imagine Another Ireland (1996) Celtic {MP3 320KB} [H33T][Naughty Knights]

  • Download 5x Faster
  • Download torrent
  • Direct Download
  • Rate this torrent +  |  -
Imagine Another Ireland (1996) Celtic {MP3 320KB} [H33T][Naughty Knights]

Free and Direct Download with Usenet.nl 300GB+ free


Torrent info

Name:Imagine Another Ireland (1996) Celtic {MP3 320KB} [H33T][Naughty Knights]

Total Size: 160.32 MB

Magnet: Magnet Link

Seeds: 0

Leechers: 0

Stream: Watch Online @ Movie4u

Last Updated: 2015-08-07 21:01:05 (Update Now)

Torrent added: 2009-08-27 10:01:39





Torrent Files List


Another Ireland Desc.txt (Size: 160.32 MB) (Files: 19)

 Another Ireland Desc.txt

5.00 KB

 imagine 1.jpg

1.93 MB

 Ireland

  Track01.mp3

9.55 MB

  Track02.mp3

7.26 MB

  Track03.mp3

5.71 MB

  Track04.mp3

9.89 MB

  Track05.mp3

8.65 MB

  Track06.mp3

7.29 MB

  Track07.mp3

9.91 MB

  Track08.mp3

14.90 MB

  Track09.mp3

8.79 MB

  Track10.mp3

12.20 MB

  Track11.mp3

9.26 MB

  Track12.mp3

8.29 MB

  Track13.mp3

7.66 MB

  Track14.mp3

5.20 MB

  Track15.mp3

13.07 MB

  Track16.mp3

20.76 MB

 tracked_by_h33t_com.txt

0.03 KB
 

tracker

leech seeds
 

Torrent description

*************************************
* IF.YOU.ENJOYED.THANK.ME.BY.SEEDING

I.DO.NOT.ALWAYS.READ.COMMENTS.

Request reseed at : www.h33tfr33sp33k.h33t.com/
---------------------------------------------
http://www.tagtuner.com/music/albums/Various/Imagine-Another-Ireland/album-v2258f2
---------------------------------------------
Playlist (Mix of Vocal and Instrumental Celtic Music)

1. Summer in Siam-- THE POGUES 4:10
2. Strathspey Con McGinley's The Newfoundland Reel--ALTAN 3:10
3. Theme From Harry's Game-- CLANNAD 2:29
4. All The Lies That You Told Me-- FRANCES BLACK 4:19
5. Ferny Hill -- THE CHIEFTANS 3:46
6. Idir Eatarthu Between Worlds-- MICHAEL O SUILLEABHAIN 3:10
7. Seo Leo'Thoil__ NOLLAIG & ARTY McGLYNN 4:19
8. Lucy's Tune Indiana Drones -- DAVY SPILLANE 6:30
9. Dul Dtí's Na Ráiseanna BEGLEY & COONEY 3:50
10. Gardiner Street Blues-- RONNIE DREW 5:19
11. Blackbird -- SHARON SHANNON 4:02
12. O'Rourke's The Merry Sisters Colonel Fraser --LIAM O'FLYNN 3:37
13. The Rights Of Man The Pride Of Petravore -- DE DANNAN 3:20
14. Geantraí 2:16 -- ANUNA
15. Pachelbel's Frolics -- EILEEN IVERS 5:42
16. Nocturne -- by JOHN KINSELLA - Irish Chamber Orchestra 9:35

-----------------------------------------
Tracker ......: http://www.h33t.com:3310/announce
-----------------------------------------
INFOHASH 4BAE80C000D6896761201D329B36EFCDBE1936EB
------------------------------------------------------
MEDIAINFO of track 1.
General
Complete name : C:\Users\...\Track01.mp3
Format : MPEG Audio
File size : 9.55 MiB
Duration : 4mn 10s
Overall bit rate : 320 Kbps
Album : Unknown Title
Track name : Track01
Track name/Position : 01
Track name/Total : 16
Performer : Unknown Artist
Writing library : LAME3.97
Encoding settings : LAME.EXE -h -b 320
Comment : Track 1
MCDI : Yes

Audio
Format : MPEG Audio
Format version : Version 1
Format profile : Layer 3
Duration : 4mn 10s
Bit rate mode : Constant
Bit rate : 320 Kbps
Channel(s) : 2 channels
Sampling rate : 44.1 KHz
Resolution : 16 bits
Writing library : LAME3.97
Encoding settings : CBR


------------------------------------------------------
Exact Audio Copy V0.99 prebeta 4 from 23. January 2008

EAC extraction logfile from 12. January 2009, 13:23

Unknown Artist / Unknown Title

Used drive : TSSTcorpCDDVDW TS-H653N Adapter: 2 ID: 1

Read mode : Secure
Utilize accurate stream : Yes
Defeat audio cache : No
Make use of C2 pointers : No

Combined read/write offset correction : 0
Overread into Lead-In and Lead-Out : No
Fill up missing offset samples with silence : Yes
Delete leading and trailing silent blocks : No
Null samples used in CRC calculations : No
Used interface : Native Win32 interface for Win NT & 2000
Gap handling : Not detected, thus appended to previous track

Used output format : LAME MP3 Encoder
Selected bitrate : 320 kBit/s
Quality : High
Add ID3 tag : Yes
Command line compressor : C:\Program Files\AutoGK\tools\lame\LAME.EXE


TOC of the extracted CD

Track | Start | Length | Start sector | End sector
---------------------------------------------------------
1 | 0:00.00 | 4:10.10 | 0 | 18759
2 | 4:10.10 | 3:10.07 | 18760 | 33016
3 | 7:20.17 | 2:29.28 | 33017 | 44219
4 | 9:49.45 | 4:19.07 | 44220 | 63651
5 | 14:08.52 | 3:46.50 | 63652 | 80651
6 | 17:55.27 | 3:10.60 | 80652 | 94961
7 | 21:06.12 | 4:19.45 | 94962 | 114431
8 | 25:25.57 | 6:30.30 | 114432 | 143711
9 | 31:56.12 | 3:50.15 | 143712 | 160976
10 | 35:46.27 | 5:19.43 | 160977 | 184944
11 | 41:05.70 | 4:02.45 | 184945 | 203139
12 | 45:08.40 | 3:37.07 | 203140 | 219421
13 | 48:45.47 | 3:20.48 | 219422 | 234469
14 | 52:06.20 | 2:16.10 | 234470 | 244679
15 | 54:22.30 | 5:42.35 | 244680 | 270364
16 | 60:04.65 | 9:35.62 | 270365 | 313551


Track 1

Filename C:\...\Track01.wav

Peak level 100.0 %
Track quality 100.0 %
Copy CRC 4919BF93
Copy OK

related torrents

Torrent name

health leech seeds Size
 

comments (0)

Main Menu