Fantasy

Stardust TR EN AC3 DvDRip XviD TLine

  • Download 5x Faster
  • Download torrent
  • Direct Download
  • Rate this torrent +  |  -
Stardust TR EN AC3 DvDRip XviD TLine

Anonymous and Free Direct Download


Torrent info

Name:Stardust TR EN AC3 DvDRip XviD TLine

Total Size: 1.38 GB

Magnet: Magnet Link

Seeds: 2

Leechers: 0

Stream: Watch Online @ Movie4u

Last Updated: 2010-07-09 12:44:46 (Update Now)

Torrent added: 2008-08-04 21:34:13



VPN For Torrents

Torrent Files List


please disable dht.txt (Size: 1.38 GB) (Files: 104)

 please disable dht.txt

0.04 KB

 sample

  sample.avi

11.54 MB

 star.cd1.txt

2.71 KB

 star.cd2.txt

2.80 KB

 Stardust.TR-EN AC3.DvDRip.XviD-TLine.cd1

  TLine-sa.r00

14.31 MB

  TLine-sa.r01

14.31 MB

  TLine-sa.r02

14.31 MB

  TLine-sa.r03

14.31 MB

  TLine-sa.r04

14.31 MB

  TLine-sa.r05

14.31 MB

  TLine-sa.r06

14.31 MB

  TLine-sa.r07

14.31 MB

  TLine-sa.r08

14.31 MB

  TLine-sa.r09

14.31 MB

  TLine-sa.r10

14.31 MB

  TLine-sa.r11

14.31 MB

  TLine-sa.r12

14.31 MB

  TLine-sa.r13

14.31 MB

  TLine-sa.r14

14.31 MB

  TLine-sa.r15

14.31 MB

  TLine-sa.r16

14.31 MB

  TLine-sa.r17

14.31 MB

  TLine-sa.r18

14.31 MB

  TLine-sa.r19

14.31 MB

  TLine-sa.r20

14.31 MB

  TLine-sa.r21

14.31 MB

  TLine-sa.r22

14.31 MB

  TLine-sa.r23

14.31 MB

  TLine-sa.r24

14.31 MB

  TLine-sa.r25

14.31 MB

  TLine-sa.r26

14.31 MB

  TLine-sa.r27

14.31 MB

  TLine-sa.r28

14.31 MB

  TLine-sa.r29

14.31 MB

  TLine-sa.r30

14.31 MB

  TLine-sa.r31

14.31 MB

  TLine-sa.r32

14.31 MB

  TLine-sa.r33

14.31 MB

  TLine-sa.r34

14.31 MB

  TLine-sa.r35

14.31 MB

  TLine-sa.r36

14.31 MB

  TLine-sa.r37

14.31 MB

  TLine-sa.r38

14.31 MB

  TLine-sa.r39

14.31 MB

  TLine-sa.r40

14.31 MB

  TLine-sa.r41

14.31 MB

  TLine-sa.r42

14.31 MB

  TLine-sa.r43

14.31 MB

  TLine-sa.r44

14.31 MB

  TLine-sa.r45

14.31 MB

  TLine-sa.r46

14.31 MB

  TLine-sa.r47

13.67 MB

  TLine-sa.rar

14.31 MB

  TLine-sa.sfv

3.59 KB

 Stardust.TR-EN AC3.DvDRip.XviD-TLine.cd2

  TLine-sa.r00

14.31 MB

  TLine-sa.r01

14.31 MB

  TLine-sa.r02

14.31 MB

  TLine-sa.r03

14.31 MB

  TLine-sa.r04

14.31 MB

  TLine-sa.r05

14.31 MB

  TLine-sa.r06

14.31 MB

  TLine-sa.r07

14.31 MB

  TLine-sa.r08

14.31 MB

  TLine-sa.r09

14.31 MB

  TLine-sa.r10

14.31 MB

  TLine-sa.r11

14.31 MB

  TLine-sa.r12

14.31 MB

  TLine-sa.r13

14.31 MB

  TLine-sa.r14

14.31 MB

  TLine-sa.r15

14.31 MB

  TLine-sa.r16

14.31 MB

  TLine-sa.r17

14.31 MB

  TLine-sa.r18

14.31 MB

  TLine-sa.r19

14.31 MB

  TLine-sa.r20

14.31 MB

  TLine-sa.r21

14.31 MB

  TLine-sa.r22

14.31 MB

  TLine-sa.r23

14.31 MB

  TLine-sa.r24

14.31 MB

  TLine-sa.r25

14.31 MB

  TLine-sa.r26

14.31 MB

  TLine-sa.r27

14.31 MB

  TLine-sa.r28

14.31 MB

  TLine-sa.r29

14.31 MB

  TLine-sa.r30

14.31 MB

  TLine-sa.r31

14.31 MB

  TLine-sa.r32

14.31 MB

  TLine-sa.r33

14.31 MB

  TLine-sa.r34

14.31 MB

  TLine-sa.r35

14.31 MB

  TLine-sa.r36

14.31 MB

  TLine-sa.r37

14.31 MB

  TLine-sa.r38

14.31 MB

  TLine-sa.r39

14.31 MB

  TLine-sa.r40

14.31 MB

  TLine-sa.r41

14.31 MB

  TLine-sa.r42

14.31 MB

  TLine-sa.r43

14.31 MB

  TLine-sa.r44

14.31 MB

  TLine-sa.r45

14.31 MB

  TLine-sa.r46

14.31 MB

  TLine-sa.r47

14.05 MB

  TLine-sa.rar

14.31 MB

  TLine-sa.sfv

3.59 KB
 

Announce URL: http://www.megaups.com/announce.php?passkey=1ad806c119cb5cac2df95cc3973efff8

Torrent description

TLine

Stardust.TR-EN AC3.DvDRip.XviD-TLine
http://www.imdb.com/title/tt0486655/


Ripper : 17mayis
Format : AVI
Format/Info : Audio Video Interleave
File size : 700 MiB
Duration : 1h 4mn
Overall bit rate : 1526 Kbps
Writing application : VirtualDubMod 1.5.4.1 (build 2178/release)
Writing library : VirtualDubMod build 2178/release
IAS1 : English / English
IAS2 : Turkish / Turkish

Video
Format : MPEG-4 Visual
Format profile : Streaming [email protected]
Format settings, BVOP : Yes
Format settings, QPel : No
Format settings, GMC : No warppoints
Format settings, Matrix : Custom
Codec ID : XVID
Codec ID/Hint : XviD
Duration : 1h 4mn
Bit rate : 621 Kbps
Width : 720 pixels
Height : 304 pixels
Display aspect ratio : 2.35
Frame rate : 25.000 fps
Resolution : 8 bits
Colorimetry : 4:2:0
Scan type : Progressive
Bits/(Pixel*Frame) : 0.114
Stream size : 285 MiB (41%)
Writing library : XviD 1.2.0.dev47 (UTC 2006-11-01)

Audio #1
Format : AC-3
Format/Info : Audio Coding 3
Codec ID : 2000
Duration : 1h 4mn
Bit rate mode : Constant
Bit rate : 448 Kbps
Channel(s) : 6 channels
Channel positions : Front: L C R, Rear: L R, LFE
Sampling rate : 48.0 KHz
Stream size : 206 MiB (29%)
Alignment : Aligned on interleaves
Interleave, duration : 96 ms (2.40 video frames)
Interleave, preload duration : 96 ms

Audio #2
Format : AC-3
Format/Info : Audio Coding 3
Codec ID : 2000
Duration : 1h 4mn
Bit rate mode : Constant
Bit rate : 448 Kbps
Channel(s) : 6 channels
Channel positions : Front: L C R, Rear: L R, LFE
Sampling rate : 48.0 KHz
Stream size : 206 MiB (29%)
Alignment : Aligned on interleaves
Interleave, duration : 96 ms (2.40 video frames)
Interleave, preload duration : 96 ms

related torrents

Torrent name

health leech seeds Size
 


comments (0)

Main Menu