Drama

The Best Years of Our Lives (1946)

  • Download 5x Faster
  • Download torrent
  • Direct Download
  • Rate this torrent +  |  -
The Best Years of Our Lives (1946)

Anonymous and Free Direct Download 300GB+


Torrent info

Name:The Best Years of Our Lives (1946)

Total Size: 1.43 GB

Magnet: Magnet Link

Seeds: 16

Leechers: 4

Stream: Watch Online @ Movie4u

Last Updated: 0000-00-00 00:00:00 (Update Now)

Torrent added: 2009-08-27 08:33:31



VPN For Torrents

Torrent Files List


The Best Years of Our Lives.avi (Size: 1.43 GB) (Files: 3)

 The Best Years of Our Lives.avi

1.43 GB

 years.txt

1.84 KB

 Torrent downloaded from Demonoid.com(2).txt

0.05 KB
 

Announce URL: http://inferno.demonoid.com:3416/announce

Torrent description

Plot: Three WWII veterans return home to small-town America to discover that they and their families have been irreparably changed. Please see imdb link for complete movie details. Thanks!

imdb link: http://www.imdb.com/title/tt0036868/

Mediainfo:

Format : AVI
Format/Info : Audio Video Interleave
File size : 1.43 GiB
Duration : 2h 49mn
Overall bit rate : 1 206 Kbps

Video
Format : MPEG-4 Visual
Format profile : Streaming [email protected]
Format settings, BVOP : Yes
Format settings, QPel : No
Format settings, GMC : No warppoints
Format settings, Matrix : Default (H.263)
Codec ID : XVID
Codec ID/Hint : XviD
Duration : 2h 49mn
Bit rate : 1 005 Kbps
Width : 720 pixels
Height : 400 pixels
Display aspect ratio : 16/9
Frame rate : 23.976 fps
Resolution : 24 bits
Colorimetry : 4:2:0
Scan type : Progressive
Bits/(Pixel*Frame) : 0.146
Stream size : 1.19 GiB (83%)
Writing library : XviD 1.2.1 (UTC 2008-12-04)

Audio
Format : AC-3
Format/Info : Audio Coding 3
Codec ID : 2000
Duration : 2h 49mn
Bit rate mode : Constant
Bit rate : 192 Kbps
Channel(s) : 2 channels
Channel positions : L R
Sampling rate : 48.0 KHz
Stream size : 233 MiB (16%)
Alignment : Aligned on interleaves
Interleave, duration : 42 ms (1.00 video frame)

related torrents

Torrent name

health leech seeds Size
 


comments (0)

Main Menu