Sports related

Billy Wingrove Learn Freestyler Football DVDRip XviD

  • Download 5x Faster
  • Download torrent
  • Direct Download
  • Rate this torrent +  |  -
Billy Wingrove Learn Freestyler Football DVDRip XviD

Anonymous and Free Direct Download 300GB+


Torrent info

Name:Billy Wingrove Learn Freestyler Football DVDRip XviD

Total Size: 699.48 MB

Magnet: Magnet Link

Seeds: 1

Leechers: 0

Stream: Watch Online @ Movie4u

Last Updated: 2011-01-09 17:59:24 (Update Now)

Torrent added: 2008-08-04 15:37:56



VPN For Torrents

Torrent Files List


Billy.Wingrove.Learn.Freestyler.Football.DVDRip.XviD.avi (Size: 699.48 MB) (Files: 2)

 Billy.Wingrove.Learn.Freestyler.Football.DVDRip.XviD.avi

699.47 MB

 billy.txt

2.25 KB
 

Announce URL: http://wonderworld.ath.cx/announce.php

Torrent description

Vollständiger Name : Billy.Wingrove.Learn.Freestyler.Football.DVDRip.XviD.avi
Format : AVI
Format/Info : Audio Video Interleave
Dateigre : 699 MiB
Duration : 1h 2min
Gesamte Bitrate : 1567 Kbps
Verwendetes Programm : VirtualDubMod 1.5.4.1 (build 2178/release)
verwendete Encoder-Bibliothek : VirtualDubMod build 2178/release
IAS1 : Japanese

Video
Format : MPEG-4 Visual
Format profile : Streaming [email protected]
Format settings, BVOP : Ja
Format settings, QPel : Nein
Format settings, GMC : No warppoints
Format settings, Matrix : Custom
Codec ID : XVID
Codec ID/Hint : XviD
Duration : 1h 2min
Bitrate : 1439 Kbps
Breite : 624 Pixel
Höhe : 464 Pixel
Bildseitenverhältnis : 4/3
Bildwiederholungsrate : 29.970 FPS
Auflösung : 8 bits
Colorimetry : 4:2:0
Scan type : Progressive
Bits/(Pixel*Frame) : 0.166
Stream size : 642 MiB (92)
verwendete Encoder-Bibliothek : XviD 1.2.0.dev47 (UTC 2006-11-01)

Audio
Format : MPEG Audio
Format version : Version 1
Format profile : Layer 3
Codec ID : 55
Codec ID/Hint : MP3
Duration : 1h 2min
Bitraten-Modus : Variable
Bitrate : 114 Kbps
Minimum bit rate : 128 Kbps
Kanäle : 2 Kanäle
Samplingrate : 48.0 KHz
Auflösung : 16 bits
Stream size : 50.8 MiB (7)
Alignment : Aligned on interleaves
Interleave, duration : 24 ms (0.72 video frame)
Interleave, preload duration : 502 ms

Sprache ist Englisch....mit Chineschen oder Japanischen (sieht für mich alles gleich aus) Untertiteln

related torrents

Torrent name

health leech seeds Size
 


comments (0)

Main Menu