Drama

The Glass Menagerie (1973) (TV) Katharine Hepburn Eng

  • Download 5x Faster
  • Download torrent
  • Direct Download
  • Rate this torrent +  |  -
The Glass Menagerie (1973) (TV) Katharine Hepburn Eng

Free and Direct Download with Usenet 300GB+ free


Torrent info

Name:The Glass Menagerie (1973) (TV) Katharine Hepburn Eng

Total Size: 701.04 MB

Magnet: Magnet Link

Seeds: 3

Leechers: 0

Stream: Watch Online @ Movie4u

Last Updated: 2016-11-26 11:10:39 (Update Now)

Torrent added: 2009-08-27 06:33:32




Torrent Files List


FAQ README.txt (Size: 701.04 MB) (Files: 3)

 FAQ README.txt

4.45 KB

 The Glass Menagerie (1973) (TV).avi

701.03 MB

 Torrent downloaded from Demonoid.com.txt

0.05 KB
 

tracker

leech seeds
 

Torrent description


Previously filmed in 1950, Tennessee Williams' 1944 Broadway hit The Glass Menagerie was remade for television in 1973. Katharine Hepburn is top-billed as Amanda Wingfield, a faded southern belle who lives on her memories in a Depression-era St. Louis tenement. Sam Waterston narrates the story as Amanda's idealistic son Tom, who'd give anything to escape his mother's fantasy world. Tom's withdrawn, clubfooted sister Laura, who maintains the glass menagerie of the title, is portrayed by Joanna Miles, while Michael Moriarity plays the Gentleman Caller, whose presence disrupts the fragile existence of the Wingfield family unit. The Glass Menagerie represented Katharine Hepburn's TV movie debut, the first of many well-publicized, highly-lauded small screen appearances for the veteran actress. When originally telecast on December 16, 1973, The Glass Menagerie contained only one commercial interruption, thanks to the largess of sponsor IBM.



http://www.imdb.com/title/tt0070115/



Awards:
Won 4 Primetime Emmys. Another 3 nominations



Director:
Anthony Harvey



Katharine Hepburn ... Amanda Wingfield

Sam Waterston ... Tom Wingfield

Joanna Miles ... Laura Wingfield
Michael Moriarty... Jim O'Connor



Video
Format : MPEG-4 Visual
Format profile : Streaming [email protected]
Format settings, BVOP : Yes
Format settings, QPel : No
Format settings, GMC : No warppoints
Format settings, Matrix : Custom
Codec ID : XVID
Codec ID/Hint : XviD
Duration : 1h 44mn
Bit rate : 802 Kbps
Width : 656 pixels
Height : 496 pixels
Display aspect ratio : 4/3
Frame rate : 25.000 fps
Resolution : 24 bits
Colorimetry : 4:2:0
Scan type : Progressive
Bits/(Pixel*Frame) : 0.099
Stream size : 600 MiB (86%)
Writing library : XviD 50
Audio
Format : MPEG Audio
Format version : Version 1
Format profile : Layer 3
Codec ID : 55
Codec ID/Hint : MP3
Duration : 1h 44mn
Bit rate mode : Constant
Bit rate : 128 Kbps
Channel(s) : 2 channels
Sampling rate : 48.0 KHz
Resolution : 16 bits
Stream size : 95.7 MiB (14%)
Alignment : Aligned on interleaves
Interleave, duration : 80 ms (2.00 video frames)
Interleave, preload duration : 504 ms

related torrents

Torrent name

health leech seeds Size
 

comments (0)

Main Menu