Music - Other

100 FAVOURITE NURSERY RHYMES&SONGS[DVDRIP][ENG] KIDZCORNER&J T R

  • Download 5x Faster
  • Download torrent
  • Direct Download
  • Rate this torrent +  |  -
100 FAVOURITE NURSERY RHYMES&SONGS[DVDRIP][ENG] KIDZCORNER&J T R

Anonymous and free Direct Download 300GB+


Torrent info

Name:100 FAVOURITE NURSERY RHYMES&SONGS[DVDRIP][ENG] KIDZCORNER&J T R

Total Size: 322.36 MB

Magnet: Magnet Link

Seeds: 0

Leechers: 0

Stream: Watch Online @ Movie4u

Last Updated: 0000-00-00 00:00:00 (Update Now)

Torrent added: 2009-08-27 00:45:50



VPN For Torrents

Torrent Files List


Nursery_Rhymes (Size: 322.36 MB) (Files: 4)

 Nursery_Rhymes

  TITLE03.avi

322.34 MB

 51PRFQ3F10L._SL500_AA240_.jpg

20.07 KB

 Torrent downloaded from Demonoid.com.txt

0.05 KB

 Tracked by moviesb4time.biz.txt

1.35 KB
 

Announce URL:

Torrent description

pre school

A collection of one hundred favourite nursery rhymes and traditional songs.

General
Complete name : C:\Users\joker\Documents\100 FAVOURITE-NURSERY RHYMES&SONGS[DVDRIP][ENG]-KIDZCORNER&J.T.R\Nursery_Rhymes\TITLE03.avi
Format : AVI
Format/Info : Audio Video Interleave
File size : 322 MiB
Duration : 33mn 37s
Overall bit rate : 1 340 Kbps

Video
Format : MPEG-4 Visual
Format profile : [email protected]
Format settings, BVOP : No
Format settings, QPel : No
Format settings, GMC : No warppoints
Format settings, Matrix : Default
Codec ID : XVID
Codec ID/Hint : XviD
Duration : 33mn 37s
Bit rate : 1 200 Kbps
Width : 640 pixels
Height : 480 pixels
Display aspect ratio : 4/3
Frame rate : 25.000 fps
Resolution : 24 bits
Colorimetry : 4:2:0
Scan type : Progressive
Bits/(Pixel*Frame) : 0.156
Stream size : 289 MiB (90%)
Writing library : Magic0432

Audio
Format : MPEG Audio
Format version : Version 1
Format profile : Layer 3
Codec ID : 55
Codec ID/Hint : MP3
Duration : 33mn 37s
Bit rate mode : Constant
Bit rate : 128 Kbps
Channel(s) : 2 channels
Sampling rate : 44.1 KHz
Resolution : 16 bits
Stream size : 30.8 MiB (10%)
Alignment : Aligned on interleaves
Interleave, duration : 26 ms (0.65 video frame)


related torrents

Torrent name

health leech seeds Size
 


comments (0)

Main Menu