Action

G | J0e The Ri$e of Cobr@ (2009) R5 XViD Just4fun

  • Download 5x Faster
  • Download torrent
  • Direct Download
  • Rate this torrent +  |  -
G | J0e The Ri$e of Cobr@ (2009) R5 XViD Just4fun

Free and Direct Download with Usenet.nl 300GB+ free


Torrent info

Name:G | J0e The Ri$e of Cobr@ (2009) R5 XViD Just4fun

Total Size: 686.12 MB

Magnet: Magnet Link

Seeds: 0

Leechers: 0

Stream: Watch Online @ Movie4u

Last Updated: 0000-00-00 00:00:00 (Update Now)

Torrent added: 2009-08-26 23:34:04





Torrent Files List


G.I. Joe The Rise of Cobra (2009).avi (Size: 686.12 MB) (Files: 2)

 G.I. Joe The Rise of Cobra (2009).avi

686.12 MB

 Torrent downloaded from Demonoid.com.txt

0.05 KB
 

Announce URL: http://p2p4uonly.ath.cx/announce.php

Torrent description

G.I.Joe.2009.TS.XViD-Just4fun

Okay here we go again.This is a RE-ENCODE of stuffies release.
Much better than all other releases so enjoy.
Audio 8/10 Video 6/10.


General
Complete name : C:\A Working Folder\j4f-gij.avi
Format : AVI
Format/Info : Audio Video Interleave
File size : 700 MiB
Duration : 1h 50mn
Overall bit rate : 890 Kbps
Writing application : VirtualDubMod 1.5.10.2 (build 2542/release)
Writing library : VirtualDubMod build 2542/release

Video
ID : 0
Format : MPEG-4 Visual
Format profile : [email protected]
Format settings, BVOP : Yes
Format settings, QPel : No
Format settings, GMC : No warppoints
Format settings, Matrix : Default (H.263)
Muxing mode : Packed bitstream
Codec ID : XVID
Codec ID/Hint : XviD
Duration : 1h 50mn
Bit rate : 759 Kbps
Width : 640 pixels
Height : 272 pixels
Display aspect ratio : 2.35:1
Frame rate : 29.970 fps
Resolution : 24 bits
Colorimetry : 4:2:0
Scan type : Progressive
Bits/(Pixel*Frame) : 0.146
Stream size : 597 MiB (85%)
Writing library : XviD 1.2.1 (UTC 2008-12-04)

Audio
ID : 1
Format : MPEG Audio
Format version : Version 1
Format profile : Layer 3
Codec ID : 55
Codec ID/Hint : MP3
Duration : 1h 50mn
Bit rate mode : Variable
Bit rate : 117 Kbps
Nominal bit rate : 128 Kbps
Channel(s) : 2 channels
Sampling rate : 48.0 KHz
Resolution : 16 bits
Stream size : 91.8 MiB (13%)
Alignment : Aligned on interleaves
Interleave, duration : 24 ms (0.72 video frame)
Interleave, preload duration : 516 ms
Writing library : LAME3.98r


Weblink:http://www.imdb.com/title/tt1046173/

related torrents

Torrent name

health leech seeds Size
 

comments (0)

Main Menu