Comedy

The Long Weekend (2005) DVDRip ENG

  • Download 5x Faster
  • Download torrent
  • Direct Download
  • Rate this torrent +  |  -
The Long Weekend (2005) DVDRip ENG

Anonymous and Free Direct Download 300GB+


Torrent info

Name:The Long Weekend (2005) DVDRip ENG

Total Size: 634.55 MB

Magnet: Magnet Link

Seeds: 62

Leechers: 14

Stream: Watch Online @ Movie4u

Last Updated: 0000-00-00 00:00:00 (Update Now)

Torrent added: 2008-08-03 12:39:23



VPN For Torrents

Torrent Files List


The Long Weekend (2005) - DVDRip - ENG.avi (Size: 634.55 MB) (Files: 3)

 The Long Weekend (2005) - DVDRip - ENG.avi

634.54 MB

 The Long Weekend (2005) - DVDRip - ENG.nfo

11.65 KB

 Tracked_by_Demonoid_com.txt

0.03 KB
 

Announce URL: http://inferno.demonoid.com:3392/announce

Torrent description

User Rating: 5.0/10
Release Date: 26 June 2006 (UK)
Genre: Comedy
http://uk.imdb.com/title/tt0385057/

Plot: A comedy about two brothers, uptight Ed and playboy Cooper. Ed has a weekend to save his career, but Cooper has other plans for the weekend, to help his stressed out brother get lucky with the ladies.


General
Complete name : The Long Weekend (2005) - DVDRip - ENG.avi
Format : AVI
Format/Info : Audio Video Interleave
File size : 635 MiB
Duration : 1h 26mn
Overal bit rate : 1025 Kbps
Writing application : VirtualDubMod 1.5.4.1 (build 2178/release)
Writing library : VirtualDubMod build 2178/release
IAS1 : English

Video
Format : MPEG-4 Visual
Format profile : Streaming [email protected]
Format settings, BVOP : Yes
Format settings, QPel : No
Format settings, GMC : No warppoints
Format settings, Matrix : Default
Muxing mode : Packet Bitstream
Codec ID : XVID
Codec ID/Hint : XviD
Duration : 1h 26mn
Bit rate : 825 Kbps
Width : 672 pixels
Height : 368 pixels
Display aspect ratio : 16/9
Frame rate : 25.000 fps
Resolution : 8 bits
Colorimetry : 4:2:0
Scan type : Progressive
Bits/(Pixel*Frame) : 0.133
Stream size : 511 MiB (81%)
Writing library : XviD 1.2.0.dev47 (UTC 2006-11-01)

Audio
Format : MPEG Audio
Format version : Version 1
Format profile : Layer 3
Codec ID : 55
Codec ID/Hint : MP3
Duration : 1h 26mn
Bit rate mode : Constant
Bit rate : 192 Kbps
Minimum bit rate : 192 Kbps
Channel(s) : 2 channels
Sampling rate : 48.0 KHz
Resolution : 16 bits
Stream size : 119 MiB (19%)
Writing library : LAME3.97
Encoding settings : CBR



Trackers:
http://inferno.demonoid.com:3391/announce
http://www.torrent-downloads.to:5869/announce
http://open.tracker.thepiratebay.org:80/announce
http://tpb.tracker.thepiratebay.org:80/announce
http://vip.tracker.thepiratebay.org/announce

Info Hash: F4AD5C6EAD2C5971552B588BD4A36E05CED3618C

related torrents

Torrent name

health leech seeds Size
 


comments (0)

Main Menu