Conan O'Brien

Conan O Brien 8 25 09 [Ipod, PSP, Zune Formatted]

  • Download 5x Faster
  • Download torrent
  • Direct Download
  • Rate this torrent +  |  -
Conan O Brien 8 25 09 [Ipod, PSP, Zune Formatted]

Free and Direct Download with Usenet 300GB+ free


Torrent info

Name:Conan O Brien 8 25 09 [Ipod, PSP, Zune Formatted]

Total Size: 279.95 MB

Magnet: Magnet Link

Seeds: 0

Leechers: 0

Stream: Watch Online @ Movie4u

Last Updated: 2015-09-30 12:30:41 (Update Now)

Torrent added: 2009-08-26 19:39:30




Torrent Files List


Conan O Brien 8.25.09.mp4 (Size: 279.95 MB) (Files: 3)

 Conan O Brien 8.25.09.mp4

279.95 MB

 Another great torrent!.txt

0.12 KB

 Torrent downloaded from Demonoid.com.txt

0.05 KB
 

tracker

leech seeds
 

Torrent description

*Tested*
Tested on Ipod Touch 2nd gen 32gb and Ipod Classic 80Gb

Converting any Movies, TV shows, Music Videos, ect please post your request in the comments.

--------------------------------------------------------------------------------

Do you want to host my file on your website? Want your tracker added to my torrents? Just post your tracker in the comments and I will add it to all of the torrents I release.

--------------------------------------------------------------------------------

Format : MPEG-4
Format profile : Base Media
Codec ID : isom
File size : 280 MiB
Duration : 43mn 10s
Overall bit rate : 907 Kbps
Movie name : Conan O Brien 8/25/09
Encoded date : UTC 2009-08-26 05:43:06
Tagged date : UTC 2009-08-26 05:43:06
Writing application : Lavf52.31.0

Video
ID : 1
Format : AVC
Format/Info : Advanced Video Codec
Format profile : [email protected]
Format settings, CABAC : No
Format settings, ReFrames : 3 frames
Codec ID : avc1
Codec ID/Info : Advanced Video Coding
Duration : 43mn 10s
Bit rate mode : Variable
Bit rate : 774 Kbps
Width : 480 pixels
Height : 270 pixels
Display aspect ratio : 16:9
Frame rate mode : Constant
Frame rate : 29.970 fps
Resolution : 24 bits
Colorimetry : 4:2:0
Scan type : Progressive
Bits/(Pixel*Frame) : 0.199
Stream size : 239 MiB (85%)
Encoded date : UTC 2009-08-26 05:43:06
Tagged date : UTC 2009-08-26 05:43:06

Audio
ID : 2
Format : AAC
Format/Info : Advanced Audio Codec
Format version : Version 4
Format profile : LC
Format settings, SBR : No
Codec ID : 40
Duration : 43mn 10s
Bit rate mode : Variable
Bit rate : 128 Kbps
Channel(s) : 2 channels
Channel positions : L R
Sampling rate : 48.0 KHz
Resolution : 16 bits
Stream size : 39.5 MiB (14%)
Encoded date : UTC 2009-08-26 05:43:06
Tagged date : UTC 2009-08-26 05:43:06

related torrents

Torrent name

health leech seeds Size
 

comments (0)

Main Menu