Electronic

Oriental Cafe Volume 2 Flac+m3utntvillage scambioetico org

  • Download 5x Faster
  • Download torrent
  • Direct Download
  • Rate this torrent +  |  -

Torrent info

Name:Oriental Cafe Volume 2 Flac+m3utntvillage scambioetico org

Total Size: 446.52 MB

Magnet: Magnet Link

Seeds: 1

Leechers: 1

Stream: Watch Online @ Movie4u

Last Updated: 2011-01-06 20:42:17 (Update Now)

Torrent added: 2009-08-19 00:00:00



VPN For Torrents

Torrent Files List


01. Ishtar - Allahalek Ya Sidi.flac (Size: 446.52 MB) (Files: 18)

 01. Ishtar - Allahalek Ya Sidi.flac

28.86 MB

 02. Reines de Saba - Ah Ghanilek.flac

30.26 MB

 03. Amr Ismael -Enta Omri.flac

55.42 MB

 04. Rahil - Sherry.flac

41.05 MB

 05. Harem - Sultana.flac

30.20 MB

 06. Zehava Ben - Awadouni.flac

34.04 MB

 07. Emil Zhrihan - Rima.flac

29.50 MB

 08. Myriah - Bine El Barah Oua El Youm.flac

26.53 MB

 09. Alabina - Rona.flac

25.15 MB

 10. Dance Arabian Nights - Alf Lyla We Lila.flac

37.86 MB

 11. Gokhan Ozen - Aramazsan Arama.flac

25.86 MB

 12. Emel - Leyla.flac

25.49 MB

 13. Rhany - Zerba.flac

25.21 MB

 14. Shamir Shurky - Yasmina.flac

30.27 MB

 Image0001.JPG

424.12 KB

 Image0002.JPG

417.46 KB

 Oriental Cafe Volume 2 - Oriental Cafe Volume 2.m3u

0.45 KB

 Oriental Cafe Volume 2.log

6.07 KB
 

Announce URL: http://tracker.tntvillage.scambioetico.org:2710/announce

Torrent description

[color=purple] by Ramasutra [/color]

[color=green]:::->Cover<-:::[/color]

Oriental Cafe Volume 2   Flac+m3utntvillage scambioetico org preview 0Oriental Cafe Volume 2   Flac+m3utntvillage scambioetico org preview 1

[color=green]:::->Dati Album<-:::[/color][/b]


Autore: artisti vari
Titolo:Oriental Cafe' Vol.2
Anno: 2003
Genere: Electronic / Chillout / oriental
Etichetta:Atoll music
fonte cd /originale /cdda
Cover : Incluse

[color=green]:::->Tracklist<-:::[/color]

1. Allahalek Ya Sidi - Ishtar
2. Ah Ghanilek [Et Je Chante, Yolé Canto]
3. Enta Omri [Version Album Original]
4. Sherry - Kathy Rahill
5. Sultana - Harem
6. Awadouni - Zehava Ben
7. Rima - Emil Zrihan
8. Bine el Barah Oua el Youm
9. Rona - Alabína
10. Alf Lyla We Lila - Dance Arabian Nights
11. Aramazsan Arama - Gökhan Özen
12. Leyla
13. Zerba [Version Orientale] - Rhany
14. Yasmina - Samir Shukry
15. Fakaraouni
16. Babouche - Salim Halali



-----------------------------------------------------------------------------------------------------------------------
2003 Collection of Modern Middle Eastern Artists who Fuse the Sounds of their Homelands with Western Beats and Grooves. The Results Make for a Refreshing Flavour of Music with Deep Roots in Ancient Tradition and Are all Grounded in Modern Sound and Recording Techniques. Includes Great Stars of the Region Like Alabina, Zehava Ben, Myriah, Ishtar, Salim Halali, Samir Shukry, Emel, Amr Ismael and Many More. --This text refers to an out of print or unavailable edition of this title.

[color=orange][::Video::][/color]

Inta Omri

[youtube=g8lwJsBwk-g]






[CODE]
Exact Audio Copy V0.99 prebeta 3 from 28. July 2007

EAC extraction logfile from 3. August 2008, 11:19

Oriental Cafe Volume 2 / Oriental Cafe Volume 2

Used drive : _NEC DVD_RW ND-3550A Adapter: 5 ID: 0

Read mode : Secure
Utilize accurate stream : Yes
Defeat audio cache : Yes
Make use of C2 pointers : No

Read offset correction : 48
Overread into Lead-In and Lead-Out : No
Fill up missing offset samples with silence : Yes
Delete leading and trailing silent blocks : No
Null samples used in CRC calculations : No
Used interface : Installed external ASPI interface
Gap handling : Not detected, thus appended to previous track

Used output format : User Defined Encoder
Selected bitrate : 768 kBit/s
Quality : High
Add ID3 tag : No
Command line compressor : C:\Programmi\Exact Audio Copy\FLAC\FLAC.EXE
Additional command line options : -6 -V -T "ARTIST=%a" -T "TITLE=%t" -T "ALBUM=%g" -T "DATE=%y" -T "TRACKNUMBER=%n" -T "GENRE=%m" -T "COMMENT=%e" %s -o %d


TOC of the extracted CD

Track | Start | Length | Start sector | End sector
---------------------------------------------------------
1 | 0:00.00 | 3:46.12 | 0 | 16961
2 | 3:46.12 | 3:58.13 | 16962 | 34824
3 | 7:44.25 | 8:24.05 | 34825 | 72629
4 | 16:08.30 | 6:19.22 | 72630 | 101076
5 | 22:27.52 | 4:28.25 | 101077 | 121201
6 | 26:56.02 | 4:45.35 | 121202 | 142611
7 | 31:41.37 | 4:09.28 | 142612 | 161314
8 | 35:50.65 | 3:53.10 | 161315 | 178799
9 | 39:44.00 | 3:22.10 | 178800 | 193959
10 | 43:06.10 | 5:46.40 | 193960 | 219949
11 | 48:52.50 | 3:40.10 | 219950 | 236459
12 | 52:32.60 | 3:36.62 | 236460 | 252721
13 | 56:09.47 | 3:44.00 | 252722 | 269521
14 | 59:53.47 | 4:00.53 | 269522 | 287574


Track 1

Filename D:\Documents and Settings\salvo.SN116508160310\Documenti\Ishtar - Allahalek Ya Sidi.wav

Peak level 99.9 %
Track quality 100.0 %
Test CRC 1B83A59D
Copy CRC 1B83A59D
Track not present in AccurateRip database
Copy OK

Track 2

Filename D:\Documents and Settings\salvo.SN116508160310\Documenti\Reines de Saba - Ah Ghanilek.wav

Peak level 99.9 %
Track quality 100.0 %
Test CRC 8F7AD7E5
Copy CRC 8F7AD7E5
Track not present in AccurateRip database
Copy OK

Track 3

Filename D:\Documents and Settings\salvo.SN116508160310\Documenti\Amr Ismael -Enta Omri.wav

Peak level 100.0 %
Track quality 99.9 %
Test CRC 969E802C
Copy CRC 969E802C
Track not present in AccurateRip database
Copy OK

Track 4

Filename D:\Documents and Settings\salvo.SN116508160310\Documenti\Rahil - Sherry.wav

Peak level 99.9 %
Track quality 100.0 %
Test CRC CBA894B1
Copy CRC CBA894B1
Track not present in AccurateRip database
Copy OK

Track 5

Filename D:\Documents and Settings\salvo.SN116508160310\Documenti\Harem - Sultana.wav

Peak level 99.9 %
Track quality 100.0 %
Test CRC E1AEC324
Copy CRC E1AEC324
Track not present in AccurateRip database
Copy OK

Track 6

Filename D:\Documents and Settings\salvo.SN116508160310\Documenti\Zehava Ben - Awadouni.wav

Peak level 100.0 %
Track quality 100.0 %
Test CRC 7B371EC3
Copy CRC 7B371EC3
Track not present in AccurateRip database
Copy OK

Track 7

Filename D:\Documents and Settings\salvo.SN116508160310\Documenti\Emil Zhrihan - Rima.wav

Peak level 99.9 %
Track quality 99.9 %
Test CRC 735D7BA0
Copy CRC 735D7BA0
Track not present in AccurateRip database
Copy OK

Track 8

Filename D:\Documents and Settings\salvo.SN116508160310\Documenti\Myriah - Bine El Barah Oua El Youm.wav

Peak level 99.9 %
Track quality 100.0 %
Test CRC 70ECC744
Copy CRC 70ECC744
Track not present in AccurateRip database
Copy OK

Track 9

Filename D:\Documents and Settings\salvo.SN116508160310\Documenti\Alabina - Rona.wav

Peak level 98.8 %
Track quality 100.0 %
Test CRC 5584D969
Copy CRC 5584D969
Track not present in AccurateRip database
Copy OK

Track 10

Filename D:\Documents and Settings\salvo.SN116508160310\Documenti\Dance Arabian Nights - Alf Lyla We Lila.wav

Peak level 98.8 %
Track quality 100.0 %
Test CRC A69F114B
Copy CRC A69F114B
Track not present in AccurateRip database
Copy OK

Track 11

Filename D:\Documents and Settings\salvo.SN116508160310\Documenti\Gokhan Ozen - Aramazsan Arama.wav

Peak level 98.8 %
Track quality 99.9 %
Test CRC 377D94D4
Copy CRC 377D94D4
Track not present in AccurateRip database
Copy OK

Track 12

Filename D:\Documents and Settings\salvo.SN116508160310\Documenti\Emel - Leyla.wav

Peak level 99.9 %
Track quality 99.9 %
Test CRC 8B621F2D
Copy CRC 8B621F2D
Track not present in AccurateRip database
Copy OK

Track 13

Filename D:\Documents and Settings\salvo.SN116508160310\Documenti\Rhany - Zerba.wav

Peak level 99.9 %
Track quality 100.0 %
Test CRC 29D5AAE3
Copy CRC 29D5AAE3
Track not present in AccurateRip database
Copy OK

Track 14

Filename D:\Documents and Settings\salvo.SN116508160310\Documenti\Shamir Shurky - Yasmina.wav

Peak level 99.9 %
Track quality 100.0 %
Test CRC BFBA2121
Copy CRC BFBA2121
Track not present in AccurateRip database
Copy OK


None of the tracks are present in the AccurateRip database

No errors occurred

End of status report

[/CODE]

related torrents

Torrent name

health leech seeds Size
 


comments (0)

Main Menu