WWE - Wrestling

WWE Smackdown 21 08 09 [SatRiP XviD Mp3 ENG][TNTVillage Scambioetico]

  • Download 5x Faster
  • Download torrent
  • Direct Download
  • Rate this torrent +  |  -
WWE Smackdown 21 08 09 [SatRiP XviD Mp3 ENG][TNTVillage Scambioetico]

Free and Direct Download with Usenet 300GB+ free


Torrent info

Name:WWE Smackdown 21 08 09 [SatRiP XviD Mp3 ENG][TNTVillage Scambioetico]

Total Size: 699.25 MB

Magnet: Magnet Link

Seeds: 5

Leechers: 2

Stream: Watch Online @ Movie4u

Last Updated: 2010-08-12 05:53:19 (Update Now)

Torrent added: 2009-08-26 18:55:31




Torrent Files List


WWE.Friday.Night.Smackdown.2009.08.21.WS.PDTV.XviD-KYR.avi (Size: 699.25 MB) (Files: 1)

 WWE.Friday.Night.Smackdown.2009.08.21.WS.PDTV.XviD-KYR.avi

699.25 MB
 

Announce URL: http://tracker.tntvillage.scambioetico.org:2710/announce

Torrent description

WWE Smackdown 21-08-09 [SatRiP-XviD-Mp3-ENG][TNTVillage.Scambioetico]


General
Complete name : C:\WWE.Friday.Night.Smackdown.2009.08.21.WS.PDTV.XviD-KYR.avi
Format : AVI
Format/Info : Audio Video Interleave
File size : 699 MiB
Duration : 1h 27mn
Overall bit rate : 1 117 Kbps
Writing application : VirtualDubMod 1.5.10.2 (build 2540/release)
Writing library : VirtualDubMod build 2540/release

Video
Format : MPEG-4 Visual
Format profile : Streaming [email protected]
Format settings, BVOP : Yes
Format settings, QPel : No
Format settings, GMC : No warppoints
Format settings, Matrix : Default
Codec ID : XVID
Codec ID/Hint : XviD
Duration : 1h 27mn
Bit rate : 972 Kbps
Width : 624 pixels
Height : 352 pixels
Display aspect ratio : 16/9
Frame rate : 29.970 fps
Resolution : 24 bits
Colorimetry : 4:2:0
Scan type : Progressive
Bits/(Pixel*Frame) : 0.148
Stream size : 609 MiB (87%)
Writing library : XviD 1.2.1 (UTC 2008-12-04)

Audio
Format : MPEG Audio
Format version : Version 1
Format profile : Layer 3
Codec ID : 55
Codec ID/Hint : MP3
Duration : 1h 27mn
Bit rate mode : Variable
Bit rate : 131 Kbps
Nominal bit rate : 130 Kbps
Channel(s) : 2 channels
Sampling rate : 48.0 KHz
Resolution : 16 bits
Stream size : 82.0 MiB (12%)
Alignment : Aligned on interleaves
Interleave, duration : 24 ms (0.72 video frame)
Interleave, preload duration : 512 ms
Writing library : LAME3.90.
Encoding settings : ABR

related torrents

Torrent name

health leech seeds Size
 

comments (0)

Main Menu