WWE - Wrestling

WWE Raw 10 08 09 [SatRiP XviD Mp3 ENG][TNTVillage Scambioetico]

  • Download 5x Faster
  • Download torrent
  • Direct Download
  • Rate this torrent +  |  -
WWE Raw 10 08 09 [SatRiP XviD Mp3 ENG][TNTVillage Scambioetico]

Anonymous and free Direct Download 300GB+


Torrent info

Name:WWE Raw 10 08 09 [SatRiP XviD Mp3 ENG][TNTVillage Scambioetico]

Total Size: 769.47 MB

Magnet: Magnet Link

Seeds: 8

Leechers: 5

Stream: Watch Online @ Movie4u

Last Updated: 2010-09-02 22:21:53 (Update Now)

Torrent added: 2009-08-26 18:49:22



VPN For Torrents

Torrent Files List


WWE.Raw.08.10.09.DSR.XviD-XWT.avi (Size: 769.47 MB) (Files: 1)

 WWE.Raw.08.10.09.DSR.XviD-XWT.avi

769.47 MB
 

Announce URL: http://tracker.tntvillage.scambioetico.org:2710/announce

Torrent description

WWE Raw 10-08-09 [SatRiP-XviD-Mp3-ENG][TNTVillage.Scambioetico]


General
Complete name : C:\Download\WWE.Raw.08.10.09.DSR.XviD-XWT.avi
Format : AVI
Format/Info : Audio Video Interleave
File size : 769 MiB
Duration : 1h 32mn
Overall bit rate : 1 163 Kbps

Video
Format : MPEG-4 Visual
Format profile : Streaming [email protected]
Format settings, BVOP : Yes
Format settings, QPel : No
Format settings, GMC : No warppoints
Format settings, Matrix : Default
Codec ID : XVID
Codec ID/Hint : XviD
Duration : 1h 32mn
Bit rate : 1 023 Kbps
Width : 640 pixels
Height : 368 pixels
Display aspect ratio : 16/9
Frame rate : 25.000 fps
Resolution : 24 bits
Colorimetry : 4:2:0
Scan type : Progressive
Bits/(Pixel*Frame) : 0.174
Stream size : 677 MiB (88%)
Writing library : XviD 1.1.2 (UTC 2006-11-01)

Audio
Format : MPEG Audio
Format version : Version 1
Format profile : Layer 3
Codec ID : 55
Codec ID/Hint : MP3
Duration : 1h 32mn
Bit rate mode : Constant
Bit rate : 128 Kbps
Channel(s) : 2 channels
Sampling rate : 44.1 KHz
Resolution : 16 bits
Stream size : 84.7 MiB (11%)
Alignment : Aligned on interleaves
Interleave, duration : 26 ms (0.65 video frame)
Interleave, preload duration : 809 ms

related torrents

Torrent name

health leech seeds Size
 


comments (0)

Main Menu