WWE - Wrestling

WWE Armageddon 2008 HDTV 720p ENG[TnTvillage scambioetico org]

  • Download 5x Faster
  • Download torrent
  • Direct Download
  • Rate this torrent +  |  -
WWE Armageddon 2008 HDTV 720p ENG[TnTvillage scambioetico org]

Anonymous and Free Direct Download 300GB+


Torrent info

Name:WWE Armageddon 2008 HDTV 720p ENG[TnTvillage scambioetico org]

Total Size: 4.21 GB

Magnet: Magnet Link

Seeds: 0

Leechers: 0

Stream: Watch Online @ Movie4u

Last Updated: 2016-04-21 12:43:57 (Update Now)

Torrent added: 2009-08-26 17:51:28



VPN For Torrents

Torrent Files List


WWE.Armageddon.2008.READNFO.720p.AVC.DigitalDelboy.mp4 (Size: 4.21 GB) (Files: 1)

 WWE.Armageddon.2008.READNFO.720p.AVC.DigitalDelboy.mp4

4.21 GB
 

tracker

leech seeds
 

Torrent description

WWE Armageddon 2008 HDTV 720p, [HDTV - h.264 - 720p - AAC - ENG][TnTVillage.scambioetico.org]

________________________________________________________________________


Theme song: "Chinese Democracy" by Guns N' Roses[1]

Promotion: World Wrestling Entertainment

Brands: Raw, ECW. Smackdown

Date: December 14, 2008

Venue: HSBC Arena

City: Buffalo, New York

________________________________________________________________________

WWE CHAMPIONSHIP: Edge© vs Triple H vs Jeff Hardy

WORLD HEAVYWEIGHT CHAMPIONSHIP: John Cena© vs Chris Jericho

Batista vs Randy Orton

Matt Hardy vs Vladimir Kozlov

INTERCONTINETAL TITLE FINAL: CM Punk vs Rey Misteryo

BELFAST BRAWL: Finlay vs Mark Henry

________________________________________________________________________

Capper : DigitalDelboy
Show Name : WWE Armageddon 2008
Source Format : High Definition 18mbps max VBR h264 1080i TS
Encoded Format : 3.5mbps NeroAVC 720p MP4
Audio : AAC 80khz Stereo
Best Viewed on PC Via : Nero Showtime, VLC, PowerDVD, BSPlayer
Best Viewed on TV Via : PS3 or XBOX 360 in HD on disc or with TVersity
File Size : 4.2gb approx

________________________________________________________________________

[General]

WWE.Armageddon.2008.READNFO.720p.AVC.DigitalDelboy.mp4
Format : MPEG-4
Format profile : Base Media / Version 2
Codec ID : mp42
File size : 4.21 GiB
Duration : 2h 53mn
Overall bit rate : 3471 Kbps
Encoded date : UTC 2008-12-15 17:18:52
Tagged date : UTC 2008-12-15 22:32:05

[Video]

Format : AVC
Format/Info : Advanced Video Codec
Format profile : [email protected]
Format settings, CABAC : Yes
Format settings, ReFrames : 2 frames
Codec ID : avc1
Duration : 2h 53mn
Bit rate mode : Variable
Bit rate : 3385 Kbps
Maximum bit rate : 21.6 Mbps
Width : 1280 pixels
Height : 720 pixels
Display aspect ratio : 16/9
Frame rate mode : Constant
Frame rate : 25.000 fps
Standard : PAL
Colorimetry : 4:2:0
Scan type : Progressive
Bits/(Pixel*Frame) : 0.147
Stream size : 4.11 GiB (98%)
Encoded date : UTC 2008-12-15 17:18:52
Tagged date : UTC 2008-12-15 22:32:05

[Audio]

Format : AAC
Format/Info : Advanced Audio Codec
Format version : Version 4
Format profile : LC
Format settings, SBR : Yes
Format settings, PS : No
Codec ID : 40
Duration : 2h 53mn
Bit rate mode : Variable
Bit rate : 80.0 Kbps
Maximum bit rate : 129 Kbps
Channel(s) : 2 channels
Channel positions : L R
Sampling rate : 48.0 KHz
Resolution : 16 bits
Stream size : 99.5 MiB (2%)
Encoded date : UTC 2008-12-15 17:18:52
Tagged date : UTC 2008-12-15 22:32:05

________________________________________________________________________

For Info & More please visit TnTVillage.scambioetico.org

related torrents

Torrent name

health leech seeds Size
 


comments (0)

Main Menu