WWE - Wrestling

TNA Victory Road 2009 HDTV 720p [HDTV x264 Aac 720p ENG][TNTVillage Scambioetico]

  • Download 5x Faster
  • Download torrent
  • Direct Download
  • Rate this torrent +  |  -

Torrent info

Name:TNA Victory Road 2009 HDTV 720p [HDTV x264 Aac 720p ENG][TNTVillage Scambioetico]

Total Size: 7.65 GB

Magnet: Magnet Link

Seeds: 1

Leechers: 3

Stream: Watch Online @ Movie4u

Last Updated: 2010-04-21 06:49:28 (Update Now)

Torrent added: 2009-08-26 17:21:51



VPN For Torrents

Torrent Files List


TNA.Victory.Road.2009.720p.CRF20.dvd9.x264-WTO.mp4 (Size: 7.65 GB) (Files: 1)

 TNA.Victory.Road.2009.720p.CRF20.dvd9.x264-WTO.mp4

7.65 GB
 

Announce URL: http://tracker.tntvillage.scambioetico.org:2710/announce

Torrent description

TNA Victory Road 2009 HDTV 720p [HDTV-x264-Aac-720p-ENG][TNTVillage.Scambioetico]


General
Complete name : C:\TNA.Victory.Road.2009.720p.CRF20.dvd9.x264-WTO.mp4
Format : MPEG-4
Format profile : Base Media
Codec ID : isom
File size : 7.65 GiB
Duration : 2h 55mn
Overall bit rate : 6 248 Kbps
Encoded date : UTC 2009-07-20 00:49:33
Tagged date : UTC 2009-07-20 00:49:33

Video
ID : 1
Format : AVC
Format/Info : Advanced Video Codec
Format profile : [email protected]
Format settings, CABAC : Yes
Format settings, ReFrames : 4 frames
Codec ID : avc1
Codec ID/Info : Advanced Video Coding
Duration : 2h 55mn
Bit rate mode : Variable
Bit rate : 6 116 Kbps
Maximum bit rate : 16.1 Mbps
Width : 1 280 pixels
Height : 720 pixels
Display aspect ratio : 16/9
Frame rate mode : Constant
Frame rate : 29.970 fps
Resolution : 24 bits
Colorimetry : 4:2:0
Scan type : Progressive
Bits/(Pixel*Frame) : 0.221
Stream size : 7.49 GiB (98%)
Encoded date : UTC 2009-07-19 17:28:21
Tagged date : UTC 2009-07-20 00:53:30

Audio
ID : 2
Format : AAC
Format/Info : Advanced Audio Codec
Format version : Version 4
Format profile : LC
Format settings, SBR : No
Codec ID : 40
Duration : 2h 55mn
Bit rate mode : Variable
Bit rate : 128 Kbps
Maximum bit rate : 143 Kbps
Channel(s) : 2 channels
Channel positions : L R
Sampling rate : 48.0 KHz
Resolution : 16 bits
Stream size : 161 MiB (2%)
Language : English
Encoded date : UTC 2009-07-20 00:53:05
Tagged date : UTC 2009-07-20 00:53:30

related torrents

Torrent name

health leech seeds Size
 


comments (0)

Main Menu