UK

When Irvine Welsh Met Bobby Gillespie (22nd May 2009) [PDTV (DivX)]

  • Download 5x Faster
  • Download torrent
  • Direct Download
  • Rate this torrent +  |  -

Torrent info

Name:When Irvine Welsh Met Bobby Gillespie (22nd May 2009) [PDTV (DivX)]

Total Size: 273.68 MB

Magnet: Magnet Link

Seeds: 7

Leechers: 0

Stream: Watch Online @ Movie4u

Last Updated: 2010-07-16 15:23:28 (Update Now)

Torrent added: 2009-08-26 13:21:56



VPN For Torrents

Torrent Files List


When Irvine Welsh Met Bobby Gillespie (22nd May 2009) [PDTV (DivX)].avi (Size: 273.68 MB) (Files: 1)

 When Irvine Welsh Met Bobby Gillespie (22nd May 2009) [PDTV (DivX)].avi

273.68 MB
 

Announce URL: http://www.thebox.bz:2710/00000000000000000000000000000000/announce

Torrent description

This torrent was uploaded from www.TheBox.bz (signup is open and free) - the home of all British TV

When Irvine Welsh Met Bobby Gillespie
When Irvine Welsh Met Bobby Gillespie (22nd May 2009) [PDTV (DivX)] preview 0


______________________________________________________________________________________________________________________________________________________________________

Irvine Welsh first met Bobby Gillespie when the latter offered the services of his band Primal Scream on the soundtrack of the film of Trainspotting. Since then they have collaborated on music videos and a controversial football anthem, and enjoyed the occasional night on the town. Artworks Scotland brought them together in Bobby's studio to discuss creativity, hard work and their greatest hits, and to look back at some of their old television appearances.

On: BBC 2 Scotland
Date: Friday 22nd May 2009
Time: 22:00 to 22:30
______________________________________________________________________________________________________________________________________________________________________

File Info:

=== File Information ===
File Name: When Irvine Welsh Met Bobby Gillespie (22nd May 2009) [PDTV (DivX)]
Duration: 00:28:31
File Size: 273 MB (286,974,648 bytes)

=== Video Information ===
Format : AVI
Format/Info : Audio Video Interleave
File size : 274 MiB
Duration : 28mn 31s
Overall bit rate : 1 341 Kbps
Writing application : Lavf51.12.1

Video
Format : MPEG-4 Visual
Format profile : [email protected]
Format settings, BVOP : No
Format settings, QPel : No
Format settings, GMC : No warppoints
Format settings, Matrix : Default
Codec ID : DX50
Codec ID/Hint : DivX 5
Duration : 28mn 31s
Bit rate : 1 200 Kbps
Width : 1 016 pixels
Height : 544 pixels
Display aspect ratio : 1.868
Frame rate : 29.970 fps
Resolution : 24 bits
Colorimetry : 4:2:0
Scan type : Progressive
Bits/(Pixel*Frame) : 0.072
Stream size : 245 MiB (89%)
Writing library : Lavc51.40.4

Audio
Format : MPEG Audio
Format version : Version 1
Format profile : Layer 3
Codec ID : 55
Codec ID/Hint : MP3
Duration : 28mn 31s
Bit rate mode : Constant
Bit rate : 128 Kbps
Channel(s) : 2 channels
Sampling rate : 44.1 KHz
Resolution : 16 bits
Stream size : 26.1 MiB (10%)
Alignment : Aligned on interleaves
Interleave, duration : 26 ms (0.78 video frame)

===============================

Some of the other rather spiffing shows available now and always if you signup free @ www.TheBox.bz:

Comedy: The Office, Peep Show, Coupling, Chef, Fawlty Towers, Only Fools and Horses, The IT Crowd, Brass Eye, Nathan Barley, Young Ones, Monty Python, Blackadder, Alan Partridge, Father Ted, Coupling, Little Britain, Mr Bean, Extras, Green Wing, Mighty Boosh

Drama: Casualty, Holby City, The Bill, Hustle, Skins, Shameless, Ashes To Ashes

Entertainment: Faking It, Derren Brown, Scrapheap Challenge, Strictly Come Dancing, Wife Swap

Game/Quiz Shows: Whose Line Is It Anyway?, Have I Got News For You, Deal Or No Deal (UK), Q.I.

Education/Documentary: Planet Earth, Horizon, Panorama, Mark Thomas (Comedy) Product

Food: Hell's Kitchen, Jamie Oliver, The F Word, Kitchen Nightmares, Masterchef, Great British Menu, Gordon Ramsay's Cookalong

Home/Property/Garden: Property Ladder, How Clean Is Your House?, Changing Rooms, Grand Designs, Homes Under The Hammer, To Buy Or Not To Buy

Motoring: Top Gear, Fifth Gear

Music: Top Of The Pops, Jools Holland, Glastonbury

Reality: Big Brother, Celebrity Big Brother, I'm a Celebrity - Get Me Out of Here!, Any Dream Will Do, Grease, Pop Idol, Wife Swap, X Factor, Badger Or Bust, Apprentice UK, Dragons' Den, Britain's Got Talent

Sci-Fi: Doctor Who, Red Dwarf, Torchwood, Primeval

Sport: Football (Soccer), Cricket, Rugby, Snooker, Darts, Formula One (F1GP)

Soaps: Eastenders, Coronation Street, Emmerdale, Neighbours, Hollyoaks

Style/Fashion: What Not To Wear, Project Catwalk

Kids: Teletubbies, Blue Peter, Tikkabilla, Andy Pandy, Postman Pat, Shoebox Zoo, Brum, Bob The Builder, Young Dracula, Sarah Jane Adventures, Shaun The Sheep

related torrents

Torrent name

health leech seeds Size
 


comments (0)

Main Menu