UK

Torchwood Series 3 Children Of Earth (2009) [PDTV (XviD)]

  • Download 5x Faster
  • Download torrent
  • Direct Download
  • Rate this torrent +  |  -
Torchwood Series 3 Children Of Earth (2009) [PDTV (XviD)]

Anonymous and Direct Download 300GB+ free


Torrent info

Name:Torchwood Series 3 Children Of Earth (2009) [PDTV (XviD)]

Total Size: 2.69 GB

Magnet: Magnet Link

Seeds: 42

Leechers: 2

Stream: Watch Online @ Movie4u

Last Updated: 0000-00-00 00:00:00 (Update Now)

Torrent added: 2009-08-26 12:28:43




Torrent Files List


Torchwood - Children Of Earth - Part 1 of 5 (6th July 2009) [PDTV (XviD)] (Size: 2.69 GB) (Files: 10)

 Torchwood - Children Of Earth - Part 1 of 5 (6th July 2009) [PDTV (XviD)]

  torchwood.3x01.children_of_earth_part_one.hdtv_xvid-fov.avi

550.37 MB

  torchwood.3x01.children_of_earth_part_one.hdtv_xvid-fov.nfo

9.10 KB

 Torchwood - Children Of Earth - Part 2 of 5 (7th July 2009) [PDTV (XviD)]

  torchwood.3x02.children_of_earth_part_two.hdtv_xvid-fov.avi

550.45 MB

  torchwood.3x02.children_of_earth_part_two.hdtv_xvid-fov.nfo

9.10 KB

 Torchwood - Children Of Earth - Part 3 of 5 (8th July 2009) [PDTV (XviD)]

  torchwood.3x03.children_of_earth_part_three.hdtv_xvid-fov.avi

550.40 MB

  torchwood.3x03.children_of_earth_part_three.hdtv_xvid-fov.nfo

9.10 KB

 Torchwood - Children Of Earth - Part 4 of 5 (9th July 2009) [PDTV (XviD)]

  torchwood.3x04.children_of_earth_part_four.hdtv_xvid-fov.avi

550.49 MB

  torchwood.3x04.children_of_earth_part_four.hdtv_xvid-fov.nfo

9.10 KB

 Torchwood - Children Of Earth - Part 5 of 5 (10th July 2009) [PDTV (XviD)]

  torchwood.3x05.children_of_earth_part_five.hdtv_xvid-fov.avi

550.17 MB

  torchwood.3x05.children_of_earth_part_five.hdtv_xvid-fov.nfo

9.10 KB
 

Announce URL: http://www.thebox.bz:2710/00000000000000000000000000000000/announce

Torrent description

This torrent was uploaded from www.TheBox.bz (signup is open and free) - the home of all British TV

Torchwood   Series 3   Children Of Earth (2009) [PDTV (XviD)] preview 0

Captain Jack Harkness, Gwen Cooper and Ianto Jones return for a brand-new adventure
in Torchwood – Children Of Earth, a new five-part series for BBC One.

Episode 1 - Day One
An ordinary day becomes a world of terror, as every single child in the world stops.
A message is sent to all the governments of Earth: "We are coming".

Episode 2 - Day Two
Torchwood are forced underground, as the government makes plans for the mysterious Floor 13.

Episode 3 - Day Three
As Britain becomes the focus of the world's attention, the 456 announce their arrival with a
huge pillar of fire that is targeted against London, leaving Torchwood members in a personal
battle to save kith and kin.

Episode 4 - Day Four
Torchwood finally begins to uncover the true nature of the events in 1965. But as Britain
hurtles towards becoming a rogue state, the 456 begins to dissolve its old alliances and
reveal its real intentions.

Episode 5 - Day Five
Gwen stands alone as the final sanction begins, and the world descends into anarchy.

Typical Technical Details
General
Complete name : torchwood.3x01.children_of_earth_part_one.hdtv_xvid-fov.avi
Format : AVI
Format/Info : Audio Video Interleave
File size : 550 MiB
Duration : 58mn 26s
Overall bit rate : 1 317 Kbps
Writing application : transcode-1.0.7

Video
ID : 0
Format : MPEG-4 Visual
Format profile : Streaming [email protected]
Format settings, BVOP : Yes
Format settings, QPel : No
Format settings, GMC : No warppoints
Format settings, Matrix : Default (H.263)
Muxing mode : Packed bitstream
Codec ID : XVID
Codec ID/Hint : XviD
Duration : 58mn 26s
Bit rate : 1 174 Kbps
Width : 624 pixels
Height : 352 pixels
Display aspect ratio : 16/9
Frame rate : 25.000 fps
Resolution : 24 bits
Colorimetry : 4:2:0
Scan type : Progressive
Bits/(Pixel*Frame) : 0.214
Stream size : 491 MiB (89%)
Writing library : XviD 1.2.1 (UTC 2008-12-04)

Audio
ID : 1
Format : MPEG Audio
Format version : Version 1
Format profile : Layer 3
Codec ID : 55
Codec ID/Hint : MP3
Duration : 58mn 26s
Bit rate mode : Constant
Bit rate : 32.0 Kbps
Channel(s) : 2 channels
Sampling rate : 48.0 KHz
Resolution : 16 bits
Stream size : 54.3 MiB (10%)
Alignment : Aligned on interleaves
Interleave, duration : 24 ms (0.60 video frame)
Writing library : LAME3.98.2ULAME3.98

Repack
This torrent is a repack of files already available on thebox.
To join in seeding simply create a folder entitled Torchwood - Series 3 (2009) [PDTV (XviD)] and put the existing files you have in there. Then download this new torrent and chose this as the destination folder.

For more information see this forum link

===============================

Some of the other rather spiffing shows available now and always if you signup free @ www.TheBox.bz:

Comedy: The Office, Peep Show, Coupling, Chef, Fawlty Towers, Only Fools and Horses, The IT Crowd, Brass Eye, Nathan Barley, Young Ones, Monty Python, Blackadder, Alan Partridge, Father Ted, Coupling, Little Britain, Mr Bean, Extras, Green Wing, Mighty Boosh

Drama: Casualty, Holby City, The Bill, Hustle, Skins, Shameless, Ashes To Ashes

Entertainment: Faking It, Derren Brown, Scrapheap Challenge, Strictly Come Dancing, Wife Swap

Game/Quiz Shows: Whose Line Is It Anyway?, Have I Got News For You, Deal Or No Deal (UK), Q.I.

Education/Documentary: Planet Earth, Horizon, Panorama, Mark Thomas (Comedy) Product

Food: Hell's Kitchen, Jamie Oliver, The F Word, Kitchen Nightmares, Masterchef, Great British Menu, Gordon Ramsay's Cookalong

Home/Property/Garden: Property Ladder, How Clean Is Your House?, Changing Rooms, Grand Designs, Homes Under The Hammer, To Buy Or Not To Buy

Motoring: Top Gear, Fifth Gear

Music: Top Of The Pops, Jools Holland, Glastonbury

Reality: Big Brother, Celebrity Big Brother, I'm a Celebrity - Get Me Out of Here!, Any Dream Will Do, Grease, Pop Idol, Wife Swap, X Factor, Badger Or Bust, Apprentice UK, Dragons' Den, Britain's Got Talent

Sci-Fi: Doctor Who, Red Dwarf, Torchwood, Primeval

Sport: Football (Soccer), Cricket, Rugby, Snooker, Darts, Formula One (F1GP)

Soaps: Eastenders, Coronation Street, Emmerdale, Neighbours, Hollyoaks

Style/Fashion: What Not To Wear, Project Catwalk

Kids: Teletubbies, Blue Peter, Tikkabilla, Andy Pandy, Postman Pat, Shoebox Zoo, Brum, Bob The Builder, Young Dracula, Sarah Jane Adventures, Shaun The Sheep

related torrents

Torrent name

health leech seeds Size
 


comments (0)

Main Menu