UK

Torchwood Series 3 Children Of Earth (2009) [HDTV 720p (x264)]

  • Download 5x Faster
  • Download torrent
  • Direct Download
  • Rate this torrent +  |  -
Torchwood Series 3 Children Of Earth (2009) [HDTV 720p (x264)]

Free and Direct Download with Usenet.nl 300GB+ free


Torrent info

Name:Torchwood Series 3 Children Of Earth (2009) [HDTV 720p (x264)]

Total Size: 7.29 GB

Magnet: Magnet Link

Seeds: 17

Leechers: 2

Stream: Watch Online @ Movie4u

Last Updated: 2010-08-16 08:48:20 (Update Now)

Torrent added: 2009-08-26 12:28:43





Torrent Files List


Torchwood - Children Of Earth - Part 1 of 5 (6th July 2009) [HDTV 720p (x264)] (Size: 7.29 GB) (Files: 10)

 Torchwood - Children Of Earth - Part 1 of 5 (6th July 2009) [HDTV 720p (x264)]

  torchwood.s03e01.720p.hdtv-bia.nfo

7.68 KB

  torchwood.s03e01.720p.hdtv.x264-bia.mkv

1.46 GB

 Torchwood - Children Of Earth - Part 2 of 5 (7th July 2009) [HDTV 720p (x264)]

  torchwood.s03e02.720p.hdtv-bia.nfo

7.64 KB

  torchwood.s03e02.720p.hdtv.x264-bia.mkv

1.46 GB

 Torchwood - Children Of Earth - Part 3 of 5 (8th July 2009) [HDTV 720p (x264)]

  torchwood.s03e03.720p.hdtv-bia.nfo

7.64 KB

  torchwood.s03e03.720p.hdtv.x264-bia.mkv

1.46 GB

 Torchwood - Children Of Earth - Part 4 of 5 (9th July 2009) [HDTV 720p (x264)]

  torchwood.s03e04.720p.hdtv-bia.nfo

7.45 KB

  torchwood.s03e04.720p.hdtv.x264-bia.mkv

1.46 GB

 Torchwood - Children Of Earth - Part 5 of 5 (10th July 2009) [HDTV 720p (x264)]

  torchwood.s03e05.720p.hdtv-bia.nfo

7.64 KB

  torchwood.s03e05.720p.hdtv.x264-bia.mkv

1.46 GB
 

Announce URL: http://www.thebox.bz:2710/00000000000000000000000000000000/announce

Torrent description

This torrent was uploaded from www.TheBox.bz (signup is open and free) - the home of all British TV

Torchwood   Series 3   Children Of Earth (2009) [HDTV 720p (x264)] preview 0

Captain Jack Harkness, Gwen Cooper and Ianto Jones return for a brand-new adventure
in Torchwood – Children Of Earth, a new five-part series for BBC One.

Episode 1 - Day One
An ordinary day becomes a world of terror, as every single child in the world stops.
A message is sent to all the governments of Earth: "We are coming".

Episode 2 - Day Two
Torchwood are forced underground, as the government makes plans for the mysterious Floor 13.

Episode 3 - Day Three
As Britain becomes the focus of the world's attention, the 456 announce their arrival with a
huge pillar of fire that is targeted against London, leaving Torchwood members in a personal
battle to save kith and kin.

Episode 4 - Day Four
Torchwood finally begins to uncover the true nature of the events in 1965. But as Britain
hurtles towards becoming a rogue state, the 456 begins to dissolve its old alliances and
reveal its real intentions.

Episode 5 - Day Five
Gwen stands alone as the final sanction begins, and the world descends into anarchy.

Typical Technical Details
General
Complete name : torchwood.s03e01.720p.hdtv.x264-bia.mkv
Format : Matroska
File size : 1.46 GiB
Duration : 58mn 30s
Overall bit rate : 3 566 Kbps
Encoded date : UTC 2009-07-06 22:03:34
Writing application : mkvmerge v2.4.1 ('Use Me') built on Dec 5 2008 18:30:05
Writing library : libebml v0.7.7 + libmatroska v0.8.1

Video
ID : 1
Format : AVC
Format/Info : Advanced Video Codec
Format profile : [email protected]
Format settings, CABAC : Yes
Format settings, ReFrames : 3 frames
Muxing mode : Container [email protected]
Codec ID : V_MPEG4/ISO/AVC
Duration : 58mn 30s
Bit rate : 3 111 Kbps
Nominal bit rate : 3 180 Kbps
Width : 1 280 pixels
Height : 720 pixels
Display aspect ratio : 16/9
Frame rate : 25.000 fps
Resolution : 24 bits
Colorimetry : 4:2:0
Scan type : Progressive
Bits/(Pixel*Frame) : 0.135
Stream size : 1.27 GiB (87%)
Writing library : x264 core 67 r1173M f6d3166
Language : English

Audio
ID : 2
Format : AC-3
Format/Info : Audio Coding 3
Codec ID : A_AC3
Duration : 58mn 30s
Bit rate mode : Constant
Bit rate : 384 Kbps
Channel(s) : 6 channels
Channel positions : Front: L C R, Surround: L R, LFE
Sampling rate : 48.0 KHz
Stream size : 161 MiB (11%)
Language : English

Repack
This torrent is a repack of files already available on thebox.
To join in seeding simply create a folder entitled Torchwood - Series 3 (2009) [HDTV 720p (x264)] and put the existing files you have in there. Then download this new torrent and chose this as the destination folder.

For more information see this forum link


===============================

Some of the other rather spiffing shows available now and always if you signup free @ www.TheBox.bz:

Comedy: The Office, Peep Show, Coupling, Chef, Fawlty Towers, Only Fools and Horses, The IT Crowd, Brass Eye, Nathan Barley, Young Ones, Monty Python, Blackadder, Alan Partridge, Father Ted, Coupling, Little Britain, Mr Bean, Extras, Green Wing, Mighty Boosh

Drama: Casualty, Holby City, The Bill, Hustle, Skins, Shameless, Ashes To Ashes

Entertainment: Faking It, Derren Brown, Scrapheap Challenge, Strictly Come Dancing, Wife Swap

Game/Quiz Shows: Whose Line Is It Anyway?, Have I Got News For You, Deal Or No Deal (UK), Q.I.

Education/Documentary: Planet Earth, Horizon, Panorama, Mark Thomas (Comedy) Product

Food: Hell's Kitchen, Jamie Oliver, The F Word, Kitchen Nightmares, Masterchef, Great British Menu, Gordon Ramsay's Cookalong

Home/Property/Garden: Property Ladder, How Clean Is Your House?, Changing Rooms, Grand Designs, Homes Under The Hammer, To Buy Or Not To Buy

Motoring: Top Gear, Fifth Gear

Music: Top Of The Pops, Jools Holland, Glastonbury

Reality: Big Brother, Celebrity Big Brother, I'm a Celebrity - Get Me Out of Here!, Any Dream Will Do, Grease, Pop Idol, Wife Swap, X Factor, Badger Or Bust, Apprentice UK, Dragons' Den, Britain's Got Talent

Sci-Fi: Doctor Who, Red Dwarf, Torchwood, Primeval

Sport: Football (Soccer), Cricket, Rugby, Snooker, Darts, Formula One (F1GP)

Soaps: Eastenders, Coronation Street, Emmerdale, Neighbours, Hollyoaks

Style/Fashion: What Not To Wear, Project Catwalk

Kids: Teletubbies, Blue Peter, Tikkabilla, Andy Pandy, Postman Pat, Shoebox Zoo, Brum, Bob The Builder, Young Dracula, Sarah Jane Adventures, Shaun The Sheep

related torrents

Torrent name

health leech seeds Size
 

comments (0)

Main Menu