UK

Torchwood Series 3 Children Of Earth (2009) [BluRay 720p (x264)]

  • Download 5x Faster
  • Download torrent
  • Direct Download
  • Rate this torrent +  |  -
Torchwood Series 3 Children Of Earth (2009) [BluRay 720p (x264)]

Free and Direct Download with Usenet.nl 300GB+ free


Torrent info

Name:Torchwood Series 3 Children Of Earth (2009) [BluRay 720p (x264)]

Total Size: 13.28 GB

Magnet: Magnet Link

Seeds: 9

Leechers: 2

Stream: Watch Online @ Movie4u

Last Updated: 2010-07-08 17:55:41 (Update Now)

Torrent added: 2009-08-26 12:28:42





Torrent Files List


Torchwood.S03E01-sample.720p.BluRay.x264-REAVERS.mkv (Size: 13.28 GB) (Files: 6)

 Torchwood.S03E01-sample.720p.BluRay.x264-REAVERS.mkv

49.20 MB

 Torchwood.S03E01.720p.BluRay.x264-REAVERS.mkv

2.65 GB

 Torchwood.S03E02.720p.BluRay.x264-REAVERS.mkv

2.65 GB

 Torchwood.S03E03.720p.BluRay.x264-REAVERS.mkv

2.65 GB

 Torchwood.S03E04.720p.BluRay.x264-REAVERS.mkv

2.65 GB

 Torchwood.S03E05.720p.BluRay.x264-REAVERS.mkv

2.65 GB
 

Announce URL: http://www.thebox.bz:2710/00000000000000000000000000000000/announce

Torrent description

This torrent was uploaded from www.TheBox.bz (signup is open and free) - the home of all British TV

Torchwood   Series 3   Children Of Earth (2009) [BluRay 720p (x264)] preview 0

Captain Jack Harkness, Gwen Cooper and Ianto Jones return for a brand-new adventure
in Torchwood – Children Of Earth, a new five-part series for BBC One.

Episode 1 - Day One
An ordinary day becomes a world of terror, as every single child in the world stops.
A message is sent to all the governments of Earth: "We are coming".

Episode 2 - Day Two
Torchwood are forced underground, as the government makes plans for the mysterious Floor 13.

Episode 3 - Day Three
As Britain becomes the focus of the world's attention, the 456 announce their arrival with a
huge pillar of fire that is targeted against London, leaving Torchwood members in a personal
battle to save kith and kin.

Episode 4 - Day Four
Torchwood finally begins to uncover the true nature of the events in 1965. But as Britain
hurtles towards becoming a rogue state, the 456 begins to dissolve its old alliances and
reveal its real intentions.

Episode 5 - Day Five
Gwen stands alone as the final sanction begins, and the world descends into anarchy.

Typical Technical Details
General
Complete name : Torchwood.S03E01.720p.BluRay.x264-REAVERS.mkv
Format : Matroska
File size : 2.65 GiB
Duration : 58mn 35s
Overall bit rate : 6 467 Kbps
Encoded date : UTC 2009-07-16 07:38:38
Writing application : mkvmerge v2.9.7 ('Tenderness') built on Jul 1 2009 18:43:35
Writing library : libebml v0.7.7 + libmatroska v0.8.1

Video
ID : 1
Format : AVC
Format/Info : Advanced Video Codec
Format profile : [email protected]
Format settings, CABAC : Yes
Format settings, ReFrames : 5 frames
Muxing mode : Container [email protected]
Codec ID : V_MPEG4/ISO/AVC
Duration : 58mn 35s
Bit rate : 4 829 Kbps
Nominal bit rate : 4 958 Kbps
Width : 1 280 pixels
Height : 720 pixels
Display aspect ratio : 16/9
Frame rate : 25.000 fps
Resolution : 24 bits
Colorimetry : 4:2:0
Scan type : Progressive
Bits/(Pixel*Frame) : 0.210
Stream size : 1.98 GiB (75%)
Writing library : x264 core 68 r1181M 49bf767

Audio
ID : 2
Format : DTS
Format/Info : Digital Theater Systems
Codec ID : A_DTS
Duration : 58mn 35s
Bit rate mode : Constant
Bit rate : 1 510 Kbps
Channel(s) : 6 channels
Channel positions : Front: L C R, Surround: L R, LFE
Sampling rate : 48.0 KHz
Resolution : 24 bits
Stream size : 633 MiB (23%)
Language : English

Text
ID : 3
Format : UTF-8
Codec ID : S_TEXT/UTF8
Codec ID/Info : UTF-8 Plain Text
Language : English

===============================

Some of the other rather spiffing shows available now and always if you signup free @ www.TheBox.bz:

Comedy: The Office, Peep Show, Coupling, Chef, Fawlty Towers, Only Fools and Horses, The IT Crowd, Brass Eye, Nathan Barley, Young Ones, Monty Python, Blackadder, Alan Partridge, Father Ted, Coupling, Little Britain, Mr Bean, Extras, Green Wing, Mighty Boosh

Drama: Casualty, Holby City, The Bill, Hustle, Skins, Shameless, Ashes To Ashes

Entertainment: Faking It, Derren Brown, Scrapheap Challenge, Strictly Come Dancing, Wife Swap

Game/Quiz Shows: Whose Line Is It Anyway?, Have I Got News For You, Deal Or No Deal (UK), Q.I.

Education/Documentary: Planet Earth, Horizon, Panorama, Mark Thomas (Comedy) Product

Food: Hell's Kitchen, Jamie Oliver, The F Word, Kitchen Nightmares, Masterchef, Great British Menu, Gordon Ramsay's Cookalong

Home/Property/Garden: Property Ladder, How Clean Is Your House?, Changing Rooms, Grand Designs, Homes Under The Hammer, To Buy Or Not To Buy

Motoring: Top Gear, Fifth Gear

Music: Top Of The Pops, Jools Holland, Glastonbury

Reality: Big Brother, Celebrity Big Brother, I'm a Celebrity - Get Me Out of Here!, Any Dream Will Do, Grease, Pop Idol, Wife Swap, X Factor, Badger Or Bust, Apprentice UK, Dragons' Den, Britain's Got Talent

Sci-Fi: Doctor Who, Red Dwarf, Torchwood, Primeval

Sport: Football (Soccer), Cricket, Rugby, Snooker, Darts, Formula One (F1GP)

Soaps: Eastenders, Coronation Street, Emmerdale, Neighbours, Hollyoaks

Style/Fashion: What Not To Wear, Project Catwalk

Kids: Teletubbies, Blue Peter, Tikkabilla, Andy Pandy, Postman Pat, Shoebox Zoo, Brum, Bob The Builder, Young Dracula, Sarah Jane Adventures, Shaun The Sheep

related torrents

Torrent name

health leech seeds Size
 

comments (0)

Main Menu