UK

Top Of The Pops (29th January 1970) [DSR (XviD)]

  • Download 5x Faster
  • Download torrent
  • Direct Download
  • Rate this torrent +  |  -
Top Of The Pops (29th January 1970) [DSR (XviD)]

Free and Direct Download with Usenet.nl 300GB+ free


Torrent info

Name:Top Of The Pops (29th January 1970) [DSR (XviD)]

Total Size: 351.21 MB

Magnet: Magnet Link

Seeds: 0

Leechers: 0

Stream: Watch Online @ Movie4u

Last Updated: 2015-05-23 18:23:47 (Update Now)

Torrent added: 2009-08-26 12:28:29





Torrent Files List


TOTP 290170.avi (Size: 351.21 MB) (Files: 1)

 TOTP 290170.avi

351.21 MB
 

Announce URL:

Torrent description

This torrent was uploaded from www.TheBox.bz (signup is open and free) - the home of all British TV

Top Of The Pops
Originally broadcast on BBC 1 on the 29th January 1970 in colour.
Cap is taken from Einfestival re-run on German satellite television.
Note: This is the surviving b/w telerecording. The only format in which the complete show now exists.

Presented by Jimmy Saville
Line-up:
Chart Rundown (backed with Edison Lighthouse - Love Grows)

Top Of The Pops (29th January 1970) [DSR (XviD)] preview 0
Top Of The Pops (29th January 1970) [DSR (XviD)] preview 1

Blodwyn Pig - Same Old Story [Performance]
Arrival - Friends [Performance]

Top Of The Pops (29th January 1970) [DSR (XviD)] preview 2

Rare Bird - Sympathy [Performance]
Chicago - I'm A Man [Pan's People intercut with TOTP promo film]

Top Of The Pops (29th January 1970) [DSR (XviD)] preview 3

Jethro Tull - Witches Promise [Performance]
Mary Hopkin - Temma Harbour [Promo film intercut with studio audience]

Top Of The Pops (29th January 1970) [DSR (XviD)] preview 4

Shocking Blue - Venus [Performance]
Badfinger - Come And Get It [Performance]
Jonathan King - Let It All Hang Out [Performance]
Brotherhood Of Man - United We Stand [Performance]

Top Of The Pops (29th January 1970) [DSR (XviD)] preview 5

Canned Heat - Let's Work Together [TOTP Promo film]
Edison Lighthouse - Love Grows [Performance]

Top Of The Pops (29th January 1970) [DSR (XviD)] preview 6

[quote]
File Information

Video Format : MPEG-4 Visual
Format profile : Streaming [email protected]
Format settings, BVOP : Yes
Format settings, QPel : No
Format settings, GMC : No warppoints
Format settings, Matrix : Default
Codec ID : XVID
Codec ID/Hint : XviD
Duration : 43mn 57s
Bit rate : 1 008 Kbps
Width : 640 pixels
Height : 480 pixels
Display aspect ratio : 4/3
Frame rate : 25.000 fps
Resolution : 24 bits
Colorimetry : 4:2:0
Scan type : Progressive
Bits/(Pixel*Frame) : 0.131
Stream size : 317 MiB (90%)
Writing library : XviD 1.1.2 (UTC 2006-11-01)

Audio Format : MPEG Audio
Format version : Version 2
Format profile : Layer 3
Codec ID : 55
Codec ID/Hint : MP3
Duration : 1h 27mn
Bit rate mode : Constant
Bit rate : 96.0 Kbps
Channel(s) : 1 channel
Sampling rate : 22.05 KHz
Resolution : 16 bits
Stream size : 30.2 MiB (9%)
Alignment : Aligned on interleaves
Interleave, duration : 26 ms (0.65 video frame)
Interleave, preload duration : 522 ms
Writing library : LAME3.97

[/quote]

===============================

Some of the other rather spiffing shows available now and always if you signup free @ www.TheBox.bz:

Comedy: The Office, Peep Show, Coupling, Chef, Fawlty Towers, Only Fools and Horses, The IT Crowd, Brass Eye, Nathan Barley, Young Ones, Monty Python, Blackadder, Alan Partridge, Father Ted, Coupling, Little Britain, Mr Bean, Extras, Green Wing, Mighty Boosh

Drama: Casualty, Holby City, The Bill, Hustle, Skins, Shameless, Ashes To Ashes

Entertainment: Faking It, Derren Brown, Scrapheap Challenge, Strictly Come Dancing, Wife Swap

Game/Quiz Shows: Whose Line Is It Anyway?, Have I Got News For You, Deal Or No Deal (UK), Q.I.

Education/Documentary: Planet Earth, Horizon, Panorama, Mark Thomas (Comedy) Product

Food: Hell's Kitchen, Jamie Oliver, The F Word, Kitchen Nightmares, Masterchef, Great British Menu, Gordon Ramsay's Cookalong

Home/Property/Garden: Property Ladder, How Clean Is Your House?, Changing Rooms, Grand Designs, Homes Under The Hammer, To Buy Or Not To Buy

Motoring: Top Gear, Fifth Gear

Music: Top Of The Pops, Jools Holland, Glastonbury

Reality: Big Brother, Celebrity Big Brother, I'm a Celebrity - Get Me Out of Here!, Any Dream Will Do, Grease, Pop Idol, Wife Swap, X Factor, Badger Or Bust, Apprentice UK, Dragons' Den, Britain's Got Talent

Sci-Fi: Doctor Who, Red Dwarf, Torchwood, Primeval

Sport: Football (Soccer), Cricket, Rugby, Snooker, Darts, Formula One (F1GP)

Soaps: Eastenders, Coronation Street, Emmerdale, Neighbours, Hollyoaks

Style/Fashion: What Not To Wear, Project Catwalk

Kids: Teletubbies, Blue Peter, Tikkabilla, Andy Pandy, Postman Pat, Shoebox Zoo, Brum, Bob The Builder, Young Dracula, Sarah Jane Adventures, Shaun The Sheep

related torrents

Torrent name

health leech seeds Size
 

comments (0)

Main Menu