UK

Top Of The Pops (17th June 1971) [PDTV (XviD)]

  • Download 5x Faster
  • Download torrent
  • Direct Download
  • Rate this torrent +  |  -
Top Of The Pops (17th June 1971) [PDTV (XviD)]

Free and Direct Download with Usenet 300GB+ free


Torrent info

Name:Top Of The Pops (17th June 1971) [PDTV (XviD)]

Total Size: 256.55 MB

Magnet: Magnet Link

Seeds: 0

Leechers: 0

Stream: Watch Online @ Movie4u

Last Updated: 2015-04-14 10:43:58 (Update Now)

Torrent added: 2009-08-26 12:28:22




Torrent Files List


TOTP 710617.AVI (Size: 256.55 MB) (Files: 1)

 TOTP 710617.AVI

256.55 MB
 

tracker

leech seeds
 

Torrent description

This torrent was uploaded from www.TheBox.bz (signup is open and free) - the home of all British TV

Uploaded by arrangement with Cheeseford in his absence this week. Top Of The Pops stops for nothing! :-D (okay, with the exception of the controller of BBC1)

Top of the Pops - 17th June 1971
Repeat broadcast on Einsfestival 5.6.09

Rundown of acts from Code101's UK Gold screening listing:
The Sweet - Co-Co
Peter Green - Heavy Heart
Tami Lynn - I'm Gonna Run Away From You
Southern Comfort - I Sure Like Your Smile
Smokey Robinson and the Miracles - I Don't Blame You At All (Chart rundown/Audience)
Three Dog Night - Joy to the World (Danced by Pan's People)
Julie Felix - Moonlight
Mick Abrahams - Why Do You Do Me This Way
Middle of the Road - Chirpy Chirpy Cheep Cheep (Danced by Jimmy and the Audience)

[img=Top Of The Pops (17th June 1971) [PDTV (XviD)] preview 0][img=Top Of The Pops (17th June 1971) [PDTV (XviD)] preview 1]
[img=Top Of The Pops (17th June 1971) [PDTV (XviD)] preview 2][img=Top Of The Pops (17th June 1971) [PDTV (XviD)] preview 3]
[img=Top Of The Pops (17th June 1971) [PDTV (XviD)] preview 4][img=Top Of The Pops (17th June 1971) [PDTV (XviD)] preview 5]
[img=Top Of The Pops (17th June 1971) [PDTV (XviD)] preview 6][img=Top Of The Pops (17th June 1971) [PDTV (XviD)] preview 7]

Top Of The Pops Einsfestival Transmission details are available at:
[url]http://translate.google.co.uk/translate?hl=en&sl=de&u=http://www.einsfestival.de/sendungen/top_of_the_pops.jsp&ei=MukoSsjPKM26jAf-y5DvCg&sa=X&oi=translate&resnum=1&ct=result&prev=/search%3Fq%3Dhttp://www.einsfestival.de/sendungen/top_of_the_pops.jsp%26hl%3Den[/url]

[quote]
File Information

Video Format : MPEG-4 Visual
Format profile : Streaming [email protected]
Format settings, BVOP : Yes
Format settings, QPel : No
Format settings, GMC : No warppoints
Format settings, Matrix : Default
Codec ID : XVID
Codec ID/Hint : XviD
Duration : 27mn 23s
Bit rate : 1 201 Kbps
Width : 640 pixels
Height : 480 pixels
Display aspect ratio : 4/3
Frame rate : 25.000 fps
Resolution : 24 bits
Colorimetry : 4:2:0
Scan type : Progressive
Bits/(Pixel*Frame) : 0.156
Stream size : 235 MiB (92%)
Writing library : XviD 1.1.2 (UTC 2006-11-01)

Audio Format : MPEG Audio
Format version : Version 2
Format profile : Layer 3
Codec ID : 55
Codec ID/Hint : MP3
Duration : 54mn 46s
Bit rate mode : Constant
Bit rate : 96.0 Kbps
Channel(s) : 1 channel
Sampling rate : 22.05 KHz
Resolution : 16 bits
Stream size : 18.8 MiB (7%)
Alignment : Aligned on interleaves
Interleave, duration : 26 ms (0.65 video frame)
Interleave, preload duration : 522 ms
Writing library : LAME3.97
[/quote]

===============================

Some of the other rather spiffing shows available now and always if you signup free @ www.TheBox.bz:

Comedy: The Office, Peep Show, Coupling, Chef, Fawlty Towers, Only Fools and Horses, The IT Crowd, Brass Eye, Nathan Barley, Young Ones, Monty Python, Blackadder, Alan Partridge, Father Ted, Coupling, Little Britain, Mr Bean, Extras, Green Wing, Mighty Boosh

Drama: Casualty, Holby City, The Bill, Hustle, Skins, Shameless, Ashes To Ashes

Entertainment: Faking It, Derren Brown, Scrapheap Challenge, Strictly Come Dancing, Wife Swap

Game/Quiz Shows: Whose Line Is It Anyway?, Have I Got News For You, Deal Or No Deal (UK), Q.I.

Education/Documentary: Planet Earth, Horizon, Panorama, Mark Thomas (Comedy) Product

Food: Hell's Kitchen, Jamie Oliver, The F Word, Kitchen Nightmares, Masterchef, Great British Menu, Gordon Ramsay's Cookalong

Home/Property/Garden: Property Ladder, How Clean Is Your House?, Changing Rooms, Grand Designs, Homes Under The Hammer, To Buy Or Not To Buy

Motoring: Top Gear, Fifth Gear

Music: Top Of The Pops, Jools Holland, Glastonbury

Reality: Big Brother, Celebrity Big Brother, I'm a Celebrity - Get Me Out of Here!, Any Dream Will Do, Grease, Pop Idol, Wife Swap, X Factor, Badger Or Bust, Apprentice UK, Dragons' Den, Britain's Got Talent

Sci-Fi: Doctor Who, Red Dwarf, Torchwood, Primeval

Sport: Football (Soccer), Cricket, Rugby, Snooker, Darts, Formula One (F1GP)

Soaps: Eastenders, Coronation Street, Emmerdale, Neighbours, Hollyoaks

Style/Fashion: What Not To Wear, Project Catwalk

Kids: Teletubbies, Blue Peter, Tikkabilla, Andy Pandy, Postman Pat, Shoebox Zoo, Brum, Bob The Builder, Young Dracula, Sarah Jane Adventures, Shaun The Sheep

related torrents

Torrent name

health leech seeds Size
 

comments (0)

Main Menu