UK

The Sunday Supplement Sky Sports Football Chat Show (9th August 2009) [PDTV (XviD)]

  • Download 5x Faster
  • Download torrent
  • Direct Download
  • Rate this torrent +  |  -

Torrent info

Name:The Sunday Supplement Sky Sports Football Chat Show (9th August 2009) [PDTV (XviD)]

Total Size: 349.99 MB

Magnet: Magnet Link

Seeds: 2

Leechers: 0

Stream: Watch Full Movie @ Movie4u

Last Updated: 2010-09-30 09:26:58 (Update Now)

Torrent added: 2009-08-26 12:16:42



VPN For Torrents

Torrent Files List


ftp-ss090809.avi (Size: 349.99 MB) (Files: 2)

 ftp-ss090809.avi

349.98 MB

 ftp-ss090809.nfo

3.54 KB
 

Announce URL: http://www.thebox.bz:2710/00000000000000000000000000000000/announce

Torrent description

This torrent was uploaded from www.TheBox.bz (signup is open and free) - the home of all British TV

The Sunday Supplement   Sky Sports Football Chat Show (9th August 2009) [PDTV (XviD)] preview 0
SPORT: The Sunday Supplement
On: Sky Sports 1
Date: Sunday 9th August 2009 (Already shown)
Time: late morning, sorry dunno the exact time anymore
Brian Woolnough discusses the sports stories that have made the headlines, along with three of his Fleet Street colleagues.
(Dolby Stereo, Widescreen, Subtitles, 2007)
~~~~~~~~~~~~~~~~~~~~~~~~~~~~~~~~~~~~~~~~~~~~~~~~~~~~~~~~
Marked By: 'Popular Sports' and 'Category: Sport' markers
~~~~~~~~~~~~~~~~~~~~~~~~~~~~~~~~~~~~~~~~~~~~~~~~~~~~~~~~
Excerpt taken from DigiGuide - the world's best TV guide available from http://www.getdigiguide.com/?p=1&r=261693

Copyright (c) GipsyMedia Limited.

First show of the new season, second one can be downloaded here.


Tech Specs:

General
Complete name : ftp-ss090809.avi
Format : AVI
Format/Info : Audio Video Interleave
File size : 350 MiB
Duration : 46mn 14s
Overall bit rate : 1 058 Kbps
Writing application : VirtualDubMod 1.5.10.2 (build 2540/release)
Writing library : VirtualDubMod build 2540/release

Video
Format : MPEG-4 Visual
Format profile : Streaming [email protected]
Format settings, BVOP : Yes
Format settings, QPel : No
Format settings, GMC : No warppoints
Format settings, Matrix : Default (H.263)
Muxing mode : Packed bitstream
Codec ID : XVID
Codec ID/Hint : XviD
Duration : 46mn 14s
Bit rate : 965 Kbps
Width : 640 pixels
Height : 352 pixels
Display aspect ratio : 16/9
Frame rate : 25.000 fps
Resolution : 24 bits
Colorimetry : 4:2:0
Scan type : Progressive
Bits/(Pixel*Frame) : 0.171
Stream size : 319 MiB (91%)
Writing library : XviD 1.2.1 (UTC 2008-12-04)

Audio
Format : MPEG Audio
Format version : Version 1
Format profile : Layer 3
Codec ID : 55
Codec ID/Hint : MP3
Duration : 46mn 14s
Bit rate mode : Variable
Bit rate : 80.4 Kbps
Minimum bit rate : 32.0 Kbps
Channel(s) : 2 channels
Sampling rate : 48.0 KHz
Resolution : 16 bits
Stream size : 26.6 MiB (8%)
Alignment : Aligned on interleaves
Interleave, duration : 24 ms (0.60 video frame)
Interleave, preload duration : 229 ms
Writing library : LAME3.97b
Encoding settings : -m j -V 5 -q 3 -lowpass 16 --vbr-new -b 32

===============================

Some of the other rather spiffing shows available now and always if you signup free @ www.TheBox.bz:

Comedy: The Office, Peep Show, Coupling, Chef, Fawlty Towers, Only Fools and Horses, The IT Crowd, Brass Eye, Nathan Barley, Young Ones, Monty Python, Blackadder, Alan Partridge, Father Ted, Coupling, Little Britain, Mr Bean, Extras, Green Wing, Mighty Boosh

Drama: Casualty, Holby City, The Bill, Hustle, Skins, Shameless, Ashes To Ashes

Entertainment: Faking It, Derren Brown, Scrapheap Challenge, Strictly Come Dancing, Wife Swap

Game/Quiz Shows: Whose Line Is It Anyway?, Have I Got News For You, Deal Or No Deal (UK), Q.I.

Education/Documentary: Planet Earth, Horizon, Panorama, Mark Thomas (Comedy) Product

Food: Hell's Kitchen, Jamie Oliver, The F Word, Kitchen Nightmares, Masterchef, Great British Menu, Gordon Ramsay's Cookalong

Home/Property/Garden: Property Ladder, How Clean Is Your House?, Changing Rooms, Grand Designs, Homes Under The Hammer, To Buy Or Not To Buy

Motoring: Top Gear, Fifth Gear

Music: Top Of The Pops, Jools Holland, Glastonbury

Reality: Big Brother, Celebrity Big Brother, I'm a Celebrity - Get Me Out of Here!, Any Dream Will Do, Grease, Pop Idol, Wife Swap, X Factor, Badger Or Bust, Apprentice UK, Dragons' Den, Britain's Got Talent

Sci-Fi: Doctor Who, Red Dwarf, Torchwood, Primeval

Sport: Football (Soccer), Cricket, Rugby, Snooker, Darts, Formula One (F1GP)

Soaps: Eastenders, Coronation Street, Emmerdale, Neighbours, Hollyoaks

Style/Fashion: What Not To Wear, Project Catwalk

Kids: Teletubbies, Blue Peter, Tikkabilla, Andy Pandy, Postman Pat, Shoebox Zoo, Brum, Bob The Builder, Young Dracula, Sarah Jane Adventures, Shaun The Sheep

related torrents

Torrent name

health leech seeds Size
 


comments (0)

Main Menu

 

script data-cfasync="false" src="//d2ghscazvn398x.cloudfront.net/?cshgd=690275">