UK

The Secret Caribbean with Trevor McDonald E03 (12th July 2009) [HDTV 720p (x264)] DW Staff Appro

  • Download 5x Faster
  • Download torrent
  • Direct Download
  • Rate this torrent +  |  -

Torrent info

Name:The Secret Caribbean with Trevor McDonald E03 (12th July 2009) [HDTV 720p (x264)] DW Staff Appro

Total Size: 1.10 GB

Magnet: Magnet Link

Seeds: 0

Leechers: 0

Stream: Watch Online @ Movie4u

Last Updated: 2015-09-09 06:49:50 (Update Now)

Torrent added: 2009-08-26 12:13:52





Torrent Files List


[HD] The Secret Caribbean with Trevor McDonald - E03 (12th July 2009) [HDTV 720p (x264)].mkv (Size: 1.10 GB) (Files: 2)

 [HD] The Secret Caribbean with Trevor McDonald - E03 (12th July 2009) [HDTV 720p (x264)].mkv

1.10 GB

 [HD] The Secret Caribbean with Trevor McDonald - E03 (12th July 2009) [HDTV 720p (x264)].nfo

3.49 KB
 

tracker

leech seeds
 

Torrent description

This torrent was uploaded from www.TheBox.bz (signup is open and free) - the home of all British TV

DW Staff approved - [url]http://www.thebox.bz/forums.php?action=viewtopic&topicid=23695[/url]

Please note that ITV messed up the transmission of this programme and they missed around 40 seconds at the beginning of Part 2. Everything they broadcast is in this cap and you don't miss anything significant.

The Secret Caribbean with Trevor McDonald   E03 (12th July 2009) [HDTV 720p (x264)]   DW Staff Appro preview 0

TRAVEL: The Secret Caribbean with Trevor McDonald
On: ITV HD
Date: Sunday 12th July 2009
Time: 20:00 to 21:00

On the last leg of Trevor McDonald's Caribbean tour, he witnesses first hand how the forces of nature can make some of the island's most glamorous locations practically uninhabitable. He meets record producer Sir George Martin in Montserrat to witness the devastation caused by 1997's volcanic eruptions, he spends the night on a beach in Grenada watching a leatherback turtle lay her eggs, and on Harbour Island he finds out why Prince Charles' cousin continues to live there despite the hurricanes.

(Stereo, Last In Series, Widescreen, High Definition)

Format : Matroska
File size : 1.10 GiB
Duration : 44mn 57s
Overall bit rate : 3 498 Kbps
Encoded date : UTC 2009-07-12 21:39:00
Writing application : mkvmerge v2.9.7 ('Tenderness') built on Jul 1 2009 18:43:35
Writing library : libebml v0.7.7 + libmatroska v0.8.1

Video
ID : 1
Format : AVC
Format/Info : Advanced Video Codec
Format profile : [email protected]
Format settings, CABAC : Yes
Format settings, ReFrames : 3 frames
Muxing mode : Container [email protected]
Codec ID : V_MPEG4/ISO/AVC
Duration : 44mn 57s
Bit rate : 3 173 Kbps
Nominal bit rate : 3 241 Kbps
Width : 1 280 pixels
Height : 720 pixels
Display aspect ratio : 16/9
Frame rate : 25.000 fps
Resolution : 24 bits
Colorimetry : 4:2:0
Scan type : Progressive
Bits/(Pixel*Frame) : 0.138
Stream size : 1 020 MiB (91%)
Writing library : x264 core 68 r1181M 49bf767
Encoding settings : cabac=1 / ref=3 / deblock=1:0:0 / analyse=0x3:0x113 / me=hex / subme=5 / psy_rd=0.0:0.0 / mixed_ref=0 / me_range=16 / chroma_me=1 / trellis=1 / 8x8dct=1 / cqm=0 / deadzone=21,11 / chroma_qp_offset=0 / threads=12 / nr=0 / decimate=1 / mbaff=0 / bframes=3 / b_pyramid=0 / b_adapt=1 / b_bias=0 / direct=3 / wpredb=1 / keyint=250 / keyint_min=25 / scenecut=40 / rc=2pass / bitrate=3241 / ratetol=1.0 / qcomp=0.50 / qpmin=10 / qpmax=51 / qpstep=4 / cplxblur=20.0 / qblur=0.5 / vbv_maxrate=24000 / vbv_bufsize=24000 / ip_ratio=1.10 / pb_ratio=1.10 / aq=1:1.00
Language : English

Audio
ID : 2
Format : AC-3
Format/Info : Audio Coding 3
Codec ID : A_AC3
Duration : 44mn 57s
Bit rate mode : Constant
Bit rate : 256 Kbps
Channel(s) : 2 channels
Channel positions : L R
Sampling rate : 48.0 KHz
Video delay : 29ms
Stream size : 82.3 MiB (7%)
Title : Dolby AC3
Language : English



===============================

Some of the other rather spiffing shows available now and always if you signup free @ www.TheBox.bz:

Comedy: The Office, Peep Show, Coupling, Chef, Fawlty Towers, Only Fools and Horses, The IT Crowd, Brass Eye, Nathan Barley, Young Ones, Monty Python, Blackadder, Alan Partridge, Father Ted, Coupling, Little Britain, Mr Bean, Extras, Green Wing, Mighty Boosh

Drama: Casualty, Holby City, The Bill, Hustle, Skins, Shameless, Ashes To Ashes

Entertainment: Faking It, Derren Brown, Scrapheap Challenge, Strictly Come Dancing, Wife Swap

Game/Quiz Shows: Whose Line Is It Anyway?, Have I Got News For You, Deal Or No Deal (UK), Q.I.

Education/Documentary: Planet Earth, Horizon, Panorama, Mark Thomas (Comedy) Product

Food: Hell's Kitchen, Jamie Oliver, The F Word, Kitchen Nightmares, Masterchef, Great British Menu, Gordon Ramsay's Cookalong

Home/Property/Garden: Property Ladder, How Clean Is Your House?, Changing Rooms, Grand Designs, Homes Under The Hammer, To Buy Or Not To Buy

Motoring: Top Gear, Fifth Gear

Music: Top Of The Pops, Jools Holland, Glastonbury

Reality: Big Brother, Celebrity Big Brother, I'm a Celebrity - Get Me Out of Here!, Any Dream Will Do, Grease, Pop Idol, Wife Swap, X Factor, Badger Or Bust, Apprentice UK, Dragons' Den, Britain's Got Talent

Sci-Fi: Doctor Who, Red Dwarf, Torchwood, Primeval

Sport: Football (Soccer), Cricket, Rugby, Snooker, Darts, Formula One (F1GP)

Soaps: Eastenders, Coronation Street, Emmerdale, Neighbours, Hollyoaks

Style/Fashion: What Not To Wear, Project Catwalk

Kids: Teletubbies, Blue Peter, Tikkabilla, Andy Pandy, Postman Pat, Shoebox Zoo, Brum, Bob The Builder, Young Dracula, Sarah Jane Adventures, Shaun The Sheep

related torrents

Torrent name

health leech seeds Size
 

comments (0)

Main Menu