UK

The Secret Caribbean with Trevor McDonald E01 (28th June 2009) [HDTV 720p (x264)] DW Staff Approve

  • Download 5x Faster
  • Download torrent
  • Direct Download
  • Rate this torrent +  |  -

Torrent info

Name:The Secret Caribbean with Trevor McDonald E01 (28th June 2009) [HDTV 720p (x264)] DW Staff Approve

Total Size: 1.11 GB

Magnet: Magnet Link

Seeds: 15

Leechers: 0

Stream: Watch Online @ Movie4u

Last Updated: 2010-10-02 06:31:31 (Update Now)

Torrent added: 2009-08-26 12:13:52



VPN For Torrents

Torrent Files List


[HD] The Secret Caribbean with Trevor McDonald - E01 (28th June 2009) [HDTV 720p (x264)].mkv (Size: 1.11 GB) (Files: 2)

 [HD] The Secret Caribbean with Trevor McDonald - E01 (28th June 2009) [HDTV 720p (x264)].mkv

1.11 GB

 [HD] The Secret Caribbean with Trevor McDonald - E01 (28th June 2009) [HDTV 720p (x264)].nfo

2.66 KB
 

Announce URL: http://www.thebox.bz:2710/00000000000000000000000000000000/announce

Torrent description

This torrent was uploaded from www.TheBox.bz (signup is open and free) - the home of all British TV

TRAVEL: The Secret Caribbean with Trevor McDonald
On: ITV HD
Date: Sunday 28th June 2009
Time: 20:00 to 21:00

The Secret Caribbean with Trevor McDonald   E01 (28th June 2009) [HDTV 720p (x264)] DW Staff Approve preview 0

First instalment of a three-part series in which Trevor McDonald travels across the Caribbean visiting some of the beautiful, dangerous and vibrant islands that make this region of the world so unique. Trevor visits Necker Island - a family home for Richard Branson but also a luxury getaway for the super-rich. From there he sees what life is like in Cuba before going to his birthplace, Trinidad, where he enjoys Carnival, a day of colourful and noisy celebrations.

(Stereo, Widescreen, High Definition)

http://thebox.bz/forums.php?action=viewtopic&topicid=23253


Format : Matroska
File size : 1.11 GiB
Duration : 45mn 14s
Overall bit rate : 3 498 Kbps
Encoded date : UTC 2009-06-29 00:44:31
Writing application : mkvmerge v2.9.5 ('Tu es le seul') built on Jun 7 2009 11:07:07
Writing library : libebml v0.7.7 + libmatroska v0.8.1

Video
ID : 1
Format : AVC
Format/Info : Advanced Video Codec
Format profile : [email protected]
Format settings, CABAC : Yes
Format settings, ReFrames : 2 frames
Muxing mode : Container [email protected]
Codec ID : V_MPEG4/ISO/AVC
Duration : 45mn 14s
Bit rate : 3 172 Kbps
Nominal bit rate : 3 241 Kbps
Width : 1 280 pixels
Height : 720 pixels
Display aspect ratio : 16/9
Frame rate : 25.000 fps
Resolution : 24 bits
Colorimetry : 4:2:0
Scan type : Progressive
Bits/(Pixel*Frame) : 0.138
Stream size : 1.00 GiB (91%)
Writing library : x264 core 67 r1173M f6d3166
Language : English

Audio
ID : 2
Format : AC-3
Format/Info : Audio Coding 3
Codec ID : A_AC3
Duration : 45mn 14s
Bit rate mode : Constant
Bit rate : 256 Kbps
Channel(s) : 2 channels
Channel positions : L R
Sampling rate : 48.0 KHz
Video delay : 28ms
Stream size : 82.8 MiB (7%)
Title : Dolby AC3
Language : English


===============================

Some of the other rather spiffing shows available now and always if you signup free @ www.TheBox.bz:

Comedy: The Office, Peep Show, Coupling, Chef, Fawlty Towers, Only Fools and Horses, The IT Crowd, Brass Eye, Nathan Barley, Young Ones, Monty Python, Blackadder, Alan Partridge, Father Ted, Coupling, Little Britain, Mr Bean, Extras, Green Wing, Mighty Boosh

Drama: Casualty, Holby City, The Bill, Hustle, Skins, Shameless, Ashes To Ashes

Entertainment: Faking It, Derren Brown, Scrapheap Challenge, Strictly Come Dancing, Wife Swap

Game/Quiz Shows: Whose Line Is It Anyway?, Have I Got News For You, Deal Or No Deal (UK), Q.I.

Education/Documentary: Planet Earth, Horizon, Panorama, Mark Thomas (Comedy) Product

Food: Hell's Kitchen, Jamie Oliver, The F Word, Kitchen Nightmares, Masterchef, Great British Menu, Gordon Ramsay's Cookalong

Home/Property/Garden: Property Ladder, How Clean Is Your House?, Changing Rooms, Grand Designs, Homes Under The Hammer, To Buy Or Not To Buy

Motoring: Top Gear, Fifth Gear

Music: Top Of The Pops, Jools Holland, Glastonbury

Reality: Big Brother, Celebrity Big Brother, I'm a Celebrity - Get Me Out of Here!, Any Dream Will Do, Grease, Pop Idol, Wife Swap, X Factor, Badger Or Bust, Apprentice UK, Dragons' Den, Britain's Got Talent

Sci-Fi: Doctor Who, Red Dwarf, Torchwood, Primeval

Sport: Football (Soccer), Cricket, Rugby, Snooker, Darts, Formula One (F1GP)

Soaps: Eastenders, Coronation Street, Emmerdale, Neighbours, Hollyoaks

Style/Fashion: What Not To Wear, Project Catwalk

Kids: Teletubbies, Blue Peter, Tikkabilla, Andy Pandy, Postman Pat, Shoebox Zoo, Brum, Bob The Builder, Young Dracula, Sarah Jane Adventures, Shaun The Sheep

related torrents

Torrent name

health leech seeds Size
 


comments (0)

Main Menu