UK

The Ruby in the Smoke (2006) [DVDRip (XviD)]

  • Download 5x Faster
  • Download torrent
  • Direct Download
  • Rate this torrent +  |  -
The Ruby in the Smoke (2006) [DVDRip (XviD)]

Free and Direct Download with Usenet 300GB+ free


Torrent info

Name:The Ruby in the Smoke (2006) [DVDRip (XviD)]

Total Size: 698.97 MB

Magnet: Magnet Link

Seeds: 0

Leechers: 0

Stream: Watch Online @ Movie4u

Last Updated: 2015-09-12 12:55:00 (Update Now)

Torrent added: 2009-08-26 12:11:23




Torrent Files List


The Ruby in the Smoke.avi (Size: 698.97 MB) (Files: 1)

 The Ruby in the Smoke.avi

698.97 MB
 

tracker

leech seeds
 

Torrent description

This torrent was uploaded from www.TheBox.bz (signup is open and free) - the home of all British TV

The Ruby in the Smoke 2006 DVDRip Xvid

This is the first of four mystery novels set in 19th-century England involving 16-year-old heroine Sally Lockhart. It introduces us to the main characters and several continuing story lines. Sally's father has died, so she moves in with a distant aunt, Mrs Rees. She receives a letter warning her to beware of the Seven Blessings. After Sally begins to investigate the letter, she learns that she is in danger. She then receives a second letter of warning, and a book about her father's experiences in India. A Mrs Holland attempts to steal the book from Sally and threatens anyone who comes to her aid. Sally is befriended by a young photographer, Frederick Garland, and his sister. It is they who provide Sally with friendship, a home and employment while she investigates the book and Mrs Holland. Several people are murdered, and the lives of Sally and her friends appear in danger. She learns about Britain's role in the opium trade, and the identity of her father. There are side plots about a young girl, Adelaide, who is held captive by Mrs Holland. At the end of this book, Adelaide's whereabouts are unknown, but it is assumed that she is alive. Another story line is the solvency of Garland's photography business, and whether Sally and friends will continue to have a home.

The Ruby in the Smoke (2006) [DVDRip (XviD)] preview 0/200px-Ruby_in_the_Smoke.jpg

Billie Piper ... Sally Lockhart

Matt Smith ... Jim Taylor
Sian Thomas ... Mrs. Rees
Kay Lyon ... Ellen
Robert Putt ... Porter
Trevor Cooper ... Mr. Higgs
Robert Glenister ... Samuel Selby
Dominic Coleman ... Jeremiah Blyth

Miles Anderson ... Major Marchbanks
Tilly Vosburgh ... Mrs. Thorpe
Chloe Walker ... Adelaide

Julie Walters ... Mrs. Holland
JJ Feild ... Frederick Garland
Ramon Tikaram ... Maharajah
Matthew Cureton ... Young Marchbanks

Format : AVI
Format/Info : Audio Video Interleave
File size : 699 MiB
Duration : 1h 25mn
Overall bit rate : 1148 Kbps
Writing application : VirtualDubMod 1.5.10.2 (build 2540/release)
Writing library : VirtualDubMod build 2540/release

Video
Format : MPEG-4 Visual
Format settings, BVOP : No
Format settings, QPel : No
Format settings, GMC : No warppoints
Format settings, Matrix : Default
Codec ID : XVID
Codec ID/Hint : XviD
Duration : 1h 25mn
Bit rate : 974 Kbps
Width : 624 pixels
Height : 256 pixels
Display aspect ratio : 2.438
Frame rate : 29.970 fps
Resolution : 8 bits
Colorimetry : 4:2:0
Scan type : Progressive
Bits/(Pixel*Frame) : 0.203
Stream size : 593 MiB (85%)
Writing library : XviD 1.0.3 (UTC 2004-12-20)

Audio
Format : MPEG Audio
Format version : Version 1
Format profile : Layer 3
Codec ID : 55
Codec ID/Hint : MP3
Duration : 1h 25mn
Bit rate mode : Variable
Bit rate : 160 Kbps
Channel(s) : 2 channels
Sampling rate : 48.0 KHz
Resolution : 16 bits
Stream size : 97.5 MiB (14%)
Alignment : Aligned on interleaves
Interleave, duration : 24 ms (0.72 video frame)
Interleave, preload duration : 115 ms
Writing library : LAME3.90.
Encoding settings : ABR

===============================

Some of the other rather spiffing shows available now and always if you signup free @ www.TheBox.bz:

Comedy: The Office, Peep Show, Coupling, Chef, Fawlty Towers, Only Fools and Horses, The IT Crowd, Brass Eye, Nathan Barley, Young Ones, Monty Python, Blackadder, Alan Partridge, Father Ted, Coupling, Little Britain, Mr Bean, Extras, Green Wing, Mighty Boosh

Drama: Casualty, Holby City, The Bill, Hustle, Skins, Shameless, Ashes To Ashes

Entertainment: Faking It, Derren Brown, Scrapheap Challenge, Strictly Come Dancing, Wife Swap

Game/Quiz Shows: Whose Line Is It Anyway?, Have I Got News For You, Deal Or No Deal (UK), Q.I.

Education/Documentary: Planet Earth, Horizon, Panorama, Mark Thomas (Comedy) Product

Food: Hell's Kitchen, Jamie Oliver, The F Word, Kitchen Nightmares, Masterchef, Great British Menu, Gordon Ramsay's Cookalong

Home/Property/Garden: Property Ladder, How Clean Is Your House?, Changing Rooms, Grand Designs, Homes Under The Hammer, To Buy Or Not To Buy

Motoring: Top Gear, Fifth Gear

Music: Top Of The Pops, Jools Holland, Glastonbury

Reality: Big Brother, Celebrity Big Brother, I'm a Celebrity - Get Me Out of Here!, Any Dream Will Do, Grease, Pop Idol, Wife Swap, X Factor, Badger Or Bust, Apprentice UK, Dragons' Den, Britain's Got Talent

Sci-Fi: Doctor Who, Red Dwarf, Torchwood, Primeval

Sport: Football (Soccer), Cricket, Rugby, Snooker, Darts, Formula One (F1GP)

Soaps: Eastenders, Coronation Street, Emmerdale, Neighbours, Hollyoaks

Style/Fashion: What Not To Wear, Project Catwalk

Kids: Teletubbies, Blue Peter, Tikkabilla, Andy Pandy, Postman Pat, Shoebox Zoo, Brum, Bob The Builder, Young Dracula, Sarah Jane Adventures, Shaun The Sheep

related torrents

Torrent name

health leech seeds Size
 

comments (0)

Main Menu